The.Uninvited.(1944).FS.TVRip.XviD-rb

The switch to colour was a gradual process mostly taking place from the 1930s to the 1950s. This section contains any movie which is completely in black and white from old classics to newer ones such as Schindler's List.
Post Reply
erdamon
Registered user
Registered user
Posts: 716
Joined: Sat Oct 14, 2006 12:00 am
Been thanked: 27 times

The.Uninvited.(1944).FS.TVRip.XviD-rb

Post by erdamon »

Image

http://www.IMDb.com/title/tt0037415/

Plot Outline: A composer and his sister discover that the reason they are able to purchase a beautiful gothic seacoast mansion very cheaply is the house's unsavory past.

Code: Select all

General
Complete name                    : D:\eMule\Incoming\The.Uninvited.(1944).CATVRip.XviD-rb.avi
Format                           : AVI
Format/Info                      : Audio Video Interleave
File size                        : 866 MiB
Duration                         : 1h 38mn
Overall bit rate                 : 1 227 Kbps
Writing application              : VirtualDubMod 1.5.4.1 (build 2178/release)
Writing library                  : VirtualDubMod build 2178/release

Video
ID                               : 0
Format                           : MPEG-4 Visual
Format profile                   : Advanced Simple@L5
Format settings, BVOP            : Yes
Format settings, QPel            : No
Format settings, GMC             : No warppoints
Format settings, Matrix          : Default (H.263)
Muxing mode                      : Packed bitstream
Codec ID                         : XviD
Codec ID/Hint                    : XviD
Duration                         : 1h 38mn
Bit rate                         : 1 153 Kbps
Width                            : 560 pixels
Height                           : 416 pixels
Display aspect ratio             : 4:3
Frame rate                       : 23.976 fps
Resolution                       : 8 bits
Colorimetry                      : 4:2:0
Scan type                        : Progressive
Bits/(Pixel*Frame)               : 0.206
Stream size                      : 814 MiB (94%)
Writing library                  : XviD 1.2.0.dev45 (UTC 2006-07-10)

Audio
ID                               : 1
Format                           : MPEG Audio
Format version                   : Version 1
Format profile                   : Layer 3
Codec ID                         : 55
Codec ID/Hint                    : MP3
Duration                         : 1h 38mn
Bit rate mode                    : Variable
Bit rate                         : 61.6 Kbps
Nominal bit rate                 : 64.0 Kbps
Channel(s)                       : 1 channel
Sampling rate                    : 48.0 KHz
Stream size                      : 43.5 MiB (5%)
Alignment                        : Aligned on interleaves
Interleave, duration             : 24 ms (0.58 video frame)
Interleave, preload duration     : 610 ms
Writing library                  : LAME3.96r
Encoding settings                : -m m -V 4 -q 2 -lowpass 16.5 --abr 64

Image
Image Image Image Image Image


The.Uninvited.(1944).CATVRip.XviD-rb.avi  [866.27 Mb]

Post Reply

Return to “Black & White”