Lone.Star.(1952).FS.DVDRip.x264

The switch to colour was a gradual process mostly taking place from the 1930s to the 1950s. This section contains any movie which is completely in black and white from old classics to newer ones such as Schindler's List.
Post Reply
Andrei
Registered user
Registered user
Posts: 5579
Joined: Fri Sep 21, 2007 6:01 pm
Been thanked: 94 times

Lone.Star.(1952).FS.DVDRip.x264

Post by Andrei »

Lone Star (Vincent Sherman, 1952)

Image

http://www.IMDb.com/title/tt0043751/

Code: Select all

Resolution: 718 x 476
Frame aspect ratio: 359:238 = 1.508403
Pixel aspect ratio: 476:535 = 0.889719
Display aspect ratio: 718:535 = 1.342056 (~4:3)

Code: Select all

"C:\x264.exe" --preset veryslow --tune film --crf 19.0 --no-chroma-me --level 4.1 --output "C:\mi_ripeo.mkv" "C:\mi_script.avs" --sar 8:9

Image Image Image
Image Image Image


Lone.Star.1952.DVDRip.x264.AC3.mkv  [1.50 Gb]

Code: Select all

Format : Matroska 
Format version : Version 2 
File size : 1.50 GiB 
Duration : 1h 34mn 
Overall bit rate : 2 275 Kbps 
Encoded date : UTC 2011-08-25 20:18:35 
Writing application : mkvmerge v4.0.0 ('The Stars were mine') built on Jun 6 2010 16:18:42 
Writing library : libebml v1.0.0 + libmatroska v1.0.0 

Video 
ID : 1 
Format : AVC 
Format/Info : Advanced Video Codec 
Format profile : High@L4.1 
Format settings, CABAC : Yes 
Format settings, ReFrames : 16 frames 
Codec ID : V_MPEG4/ISO/AVC 
Duration : 1h 34mn 
Bit rate : 2 037 Kbps 
Width : 718 pixels 
Height : 476 pixels 
Display aspect ratio : 4:3 
Original display aspect ratio : 4:3 
Frame rate : 23.976 fps 
Color space : YUV 
Chroma subsampling : 4:2:0 
Bit depth : 8 bits 
Scan type : Progressive 
Bits/(Pixel*Frame) : 0.249 
Stream size : 1.35 GiB (90%) 
Writing library : x264 core 116 r2074 2641b9e 
Encoding settings : cabac=1 / ref=16 / deblock=1:-1:-1 / analyse=0x3:0x133 / me=umh / subme=10 / psy=1 / psy_rd=1.00:0.15 / mixed_ref=1 / me_range=24 / chroma_me=0 / trellis=2 / 8x8dct=1 / cqm=0 / deadzone=21,11 / fast_pskip=1 / chroma_qp_offset=-3 / threads=6 / sliced_threads=0 / nr=0 / decimate=1 / interlaced=0 / bluray_compat=0 / constrained_intra=0 / bframes=8 / b_pyramid=2 / b_adapt=2 / b_bias=0 / direct=3 / weightb=1 / open_gop=0 / weightp=2 / keyint=250 / keyint_min=23 / scenecut=40 / intra_refresh=0 / rc_lookahead=60 / rc=crf / mbtree=1 / crf=19.0 / qcomp=0.60 / qpmin=0 / qpmax=69 / qpstep=4 / ip_ratio=1.40 / aq=1:1.00 
Language : English 

Audio 
ID : 2 
Format : AC-3 
Format/Info : Audio Coding 3 
Mode extension : CM (complete main) 
Codec ID : A_AC3 
Duration : 1h 34mn 
Bit rate mode : Constant 
Bit rate : 192 Kbps 
Channel(s) : 2 channels 
Channel positions : Front: L R 
Sampling rate : 48.0 KHz 
Bit depth : 16 bits 
Compression mode : Lossy 
Stream size : 130 MiB (8%) 
Language : English 

Text 
ID : 3 
Format : UTF-8 
Codec ID : S_TEXT/UTF8 
Codec ID/Info : UTF-8 Plain Text 
Language : Spanish

Thanks to roisiano!

incolt
Registered user
Registered user
Posts: 65
Joined: Wed Sep 12, 2007 7:24 am

Re: Lone.Star.(1952).FS.DVDRip.x264

Post by incolt »

Thanks!

Post Reply

Return to “Black & White”