Third.Party.Risk.(aka.the.Deadly.Game).(1954).DVDRip.X264-Wolfman

The switch to colour was a gradual process mostly taking place from the 1930s to the 1950s. This section contains any movie which is completely in black and white from old classics to newer ones such as Schindler's List.
Post Reply
Andrei
Registered user
Registered user
Posts: 7232
Joined: Fri Sep 21, 2007 6:01 pm
Been thanked: 19 times

Third.Party.Risk.(aka.the.Deadly.Game).(1954).DVDRip.X264-Wolfman

Post by Andrei » Sun Apr 18, 2010 1:38 am

Image

Third Party Risk (1954)
The Deadly Game - Audacia Fatal


When songwriter Phil Graham is vacationing at a Spanish resort, he runs into old RAF comrade Tony Roscoe, whom he has not seen since the war. Tony is suddenly called back to Britain on emergency business and is not able to drive back to London. Phil volunteers to drive his car back for him and to bring a valuable envelope that Tony has left locked in the hotel safe. After saying goodbye to his old flying buddy, Phil is mugged by thugs while driving Tony's car. Another hotel guest, the enigmatic Mr. Darius, as well as a local police inspector, tell Phil that his old friend has become involved in criminal enterprises since his discharge. When Phil finds him murdered upon returning to Britain, he finds himself in possession of an envelope filled with mysterious microfilm that everyone seems to want.
hammerfilms.com

Image
Image
Image
Image
Image
Image
Image
Image

Elinks:
Credits goes to Wolfman and Hamm.
The Deadly Game (1954) DVDRip x.264 AC3 Wolfman.mkv  [475.47 Mb]

Code: Select all

General
Complete name : The Deadly Game (1954) DVDRip x.264 AC3 Wolfman.mkv
Format : Matroska
File size : 475 MiB
Duration : 1h 3mn
Overall bit rate : 1 045 Kbps
Encoded date : UTC 2010-04-05 13:30:51
Writing application : mkvmerge v3.1.0 ('Happy up here') gebaut am Jan 19 2010 12:09:24
Writing library : libebml v0.7.9 + libmatroska v0.8.1

Video
ID : 1
Format : AVC
Format/Info : Advanced Video Codec
Format profile : High@L3.0
Format settings, CABAC : Yes
Format settings, ReFrames : 5 frames
Muxing mode : Container profile=Unknown@3.0
Codec ID : V_MPEG4/ISO/AVC
Duration : 1h 3mn
Bit rate : 833 Kbps
Width : 712 pixels
Height : 400 pixels
Display aspect ratio : 16:9
Frame rate : 23.976 fps
Resolution : 8 bits
Colorimetry : 4:2:0
Scan type : Progressive
Bits/(Pixel*Frame) : 0.122
Stream size : 378 MiB (80%)
Writing library : x264 core 84 r1416 fcf70c2

Audio
ID : 2
Format : AC-3
Format/Info : Audio Coding 3
Codec ID : A_AC3
Duration : 1h 3mn
Bit rate mode : Constant
Bit rate : 192 Kbps
Channel(s) : 2 channels
Channel positions : L R
Sampling rate : 48.0 KHz
Stream size : 87.3 MiB (18%)

nickodemos
Registered user
Registered user
Posts: 44
Joined: Tue Mar 23, 2004 2:45 am

Re: Third.Party.Risk.(aka.the.Deadly.Game).(1954).DVDRip.X264-Wolfman

Post by nickodemos » Sun Mar 06, 2011 1:13 pm

Get a reseed on this?

Moerges
Registered user
Registered user
Posts: 5123
Joined: Fri Dec 31, 2004 1:50 pm
Been thanked: 12 times

Re: Third.Party.Risk.(aka.the.Deadly.Game).(1954).DVDRip.X264-Wolfman

Post by Moerges » Sun Mar 06, 2011 8:33 pm

Resharing.

nickodemos
Registered user
Registered user
Posts: 44
Joined: Tue Mar 23, 2004 2:45 am

Re: Third.Party.Risk.(aka.the.Deadly.Game).(1954).DVDRip.X264-Wolfman

Post by nickodemos » Thu Mar 10, 2011 1:33 pm

OK. Got it.

Post Reply

Return to “Black & White”