The.Small.Back.Room.(aka.Hour.of.Glory).(1949).(+Commentary).CRiTERiON.FS.DVDRip.XviD-AW

The switch to colour was a gradual process mostly taking place from the 1930s to the 1950s. This section contains any movie which is completely in black and white from old classics to newer ones such as Schindler's List.
Post Reply
Andrei
Registered user
Registered user
Posts: 5579
Joined: Fri Sep 21, 2007 6:01 pm
Been thanked: 94 times

The.Small.Back.Room.(aka.Hour.of.Glory).(1949).(+Commentary).CRiTERiON.FS.DVDRip.XviD-AW

Post by Andrei »

Code: Select all

General
Complete name                    : D:\Emule\The.Small.Back.Room.(aka.Hour.of.Glory).(1949).(+Commentary).CRiTERiON.FS.DVDRip.XviD-AW.avi
Format                           : AVI
Format/Info                      : Audio Video Interleave
File size                        : 1.24 GiB
Duration                         : 1h 47mn
Overall bit rate                 : 1 645 Kbps
Writing application              : VirtualDubMod 1.5.10.2 (build 2540/release)
Writing library                  : VirtualDubMod build 2540/release

Video
Format                           : MPEG-4 Visual
Format profile                   : Streaming Video@L1
Format settings, BVOP            : Yes
Format settings, QPel            : No
Format settings, GMC             : No warppoints
Format settings, Matrix          : Default (MPEG)
Codec ID                         : XviD
Codec ID/Hint                    : XviD
Duration                         : 1h 47mn
Bit rate                         : 1 502 Kbps
Width                            : 608 pixels
Height                           : 448 pixels
Display aspect ratio             : 4/3
Frame rate                       : 23.976 fps
Resolution                       : 24 bits
Colorimetry                      : 4:2:0
Scan type                        : Progressive
Bits/(Pixel*Frame)               : 0.230
Stream size                      : 1.13 GiB (91%)
Writing library                  : XviD 1.1.2 (UTC 2006-11-01)

Audio #1
Format                           : MPEG Audio
Format version                   : Version 1
Format profile                   : Layer 3
Codec ID                         : 55
Codec ID/Hint                    : MP3
Duration                         : 1h 47mn
Bit rate mode                    : Variable
Bit rate                         : 60.1 Kbps
Nominal bit rate                 : 64.0 Kbps
Channel(s)                       : 1 channel
Sampling rate                    : 48.0 KHz
Resolution                       : 16 bits
Stream size                      : 46.4 MiB (4%)
Alignment                        : Aligned on interleaves
Interleave, duration             : 24 ms (0.58 video frame)
Interleave, preload duration     : 306 ms
Writing library                  : LAME3.90.
Encoding settings                : ABR

Audio #2
Format                           : MPEG Audio
Format version                   : Version 1
Format profile                   : Layer 3
Codec ID                         : 55
Codec ID/Hint                    : MP3
Duration                         : 1h 47mn
Bit rate mode                    : Variable
Bit rate                         : 61.3 Kbps
Nominal bit rate                 : 64.0 Kbps
Channel(s)                       : 1 channel
Sampling rate                    : 48.0 KHz
Resolution                       : 16 bits
Stream size                      : 47.3 MiB (4%)
Alignment                        : Aligned on interleaves
Interleave, duration             : 24 ms (0.58 video frame)
Interleave, preload duration     : 300 ms
Writing library                  : LAME3.90.
Encoding settings                : ABR

Dave1983
Newly registered user
Newly registered user
Posts: 2
Joined: Thu Dec 11, 2008 9:09 pm

Re: The.Small.Back.Room.(aka.Hour.of.Glory).(1949).(+Commentary).CRiTERiON.FS.DVDRip.XviD-AW

Post by Dave1983 »

Many thanks for this! :)

Incidently, I would very much appreciate rips of the Powel & Pressburger Criterion movies that feature a commentary by Martin Scorsese (and if possible, of course, to include the commentary... I simply adore Scorsese's commentaries... He is fantastic!)

- The Thief of Bagdad (1940) (commentary by Martin Scorsese AND Francis Ford Coppolla !!)
- The Life and Death of Colonel Blimp (1943)
- Black Narcissus (1947)
- The Red Shoes (1948)
- The Tales of Hoffmann (1951)

Mnay thanks in advance! :)

angel_punx
Registered user
Registered user
Posts: 110
Joined: Sun Sep 26, 2010 2:24 am
Location: UK
Has thanked: 336 times

Re: The.Small.Back.Room.(aka.Hour.of.Glory).(1949).(+Commentary).CRiTERiON.FS.DVDRip.XviD-AW

Post by angel_punx »

Thanks :D

liloboot
Registered user
Registered user
Posts: 121
Joined: Wed Oct 10, 2007 6:37 pm

Re: The.Small.Back.Room.(aka.Hour.of.Glory).(1949).(+Commentary).CRiTERiON.FS.DVDRip.XviD-AW

Post by liloboot »

Thanks a lot for the Criterion encode.

mgd33
Registered user
Registered user
Posts: 354
Joined: Thu Mar 29, 2007 7:17 pm
Location: the Netherlands
Has thanked: 125 times

Re: The.Small.Back.Room.(aka.Hour.of.Glory).(1949).(+Commentary).CRiTERiON.FS.DVDRip.XviD-AW

Post by mgd33 »

Thanks.

Post Reply

Return to “Black & White”