Page 1 of 1

Undercurrent.(1946).FS.DVDRip.XviD-Wolfman

Posted: Wed Sep 10, 2008 3:22 pm
by elPongoWongo
Image

http://www.IMDb.com/title/tt0039066/
Young bride Ann Hamilton soon begins to suspect that her charming husband is really a psychotic who plans to murder her.

Code: Select all

General
Complete name                    : Undercurrent.(1946).FS.DVDRip.XviD-Wolfman.avi
Format                           : AVI
Format/Info                      : Audio Video Interleave
File size                        : 1.46 GiB
Duration                         : 1h 51mn
Overall bit rate                 : 1 878 Kbps
Writing application              : VirtualDubMod 1.5.4.1 (build 2178/release)
Writing library                  : VirtualDubMod build 2178/release

Video
Format                           : MPEG-4 Visual
Format profile                   : Streaming Video@L1
Format settings, BVOP            : Yes
Format settings, QPel            : No
Format settings, GMC             : No warppoints
Format settings, Matrix          : Default
Muxing mode                      : Packet Bitstream
Codec ID                         : XviD
Codec ID/Hint                    : XviD
Duration                         : 1h 51mn
Bit rate                         : 1 678 Kbps
Width                            : 720 pixels
Height                           : 544 pixels
Display aspect ratio             : 4/3
Frame rate                       : 25.000 fps
Resolution                       : 24 bits
Colorimetry                      : 4:2:0
Scan type                        : Progressive
Bits/(Pixel*Frame)               : 0.171
Stream size                      : 1.30 GiB (89%)
Writing library                  : XviD 1.2.0.dev47 (UTC 2006-11-01)

Audio
Format                           : AC-3
Format/Info                      : Audio Coding 3
Codec ID                         : 2000
Duration                         : 1h 51mn
Bit rate mode                    : Constant
Bit rate                         : 192 Kbps
Channel(s)                       : 1 channel
Channel positions                : C
Sampling rate                    : 48.0 KHz
Stream size                      : 153 MiB (10%)
Alignment                        : Split accross interleaves
Interleave, duration             : 80 ms (2.00 video frames)
Interleave, preload duration     : 500 ms
Image Image Image Image Image

Ed2k Link: Undercurrent.(1946).FS.DVDRip.XviD-Wolfman.avi  [1.46 Gb]

Re: Undercurrent.(1946).FS.DVDRip.XviD-Wolfman

Posted: Tue Sep 06, 2016 9:48 am
by Nixganush
Thanks a lot! :clap1