Tad.Jones.And.The.Secret.Of.King.Midas.(2017).BRRip.XviD-RARBG

Animated movies for kids of all ages (U and PG certificate).
Post Reply
bjorn j
Donator
Donator
Posts: 2968
Joined: Wed Jan 07, 2009 1:49 pm
Has thanked: 24 times
Been thanked: 5804 times

Tad.Jones.And.The.Secret.Of.King.Midas.(2017).BRRip.XviD-RARBG

Post by bjorn j » Fri Jan 05, 2018 3:14 pm

Image

http://www.IMDb.com/title/tt3896102/
Genres: Animation, Adventure, Comedy

Tad Jones, the most awkward explorer, must rescue his beloved Sara from a millionaire who is looking for King Midas' necklace.

Code: Select all

Video
ID                                       : 0
Format                                   : MPEG-4 Visual
Format profile                           : Simple@L5
Format settings, BVOP                    : No
Format settings, QPel                    : No
Format settings, GMC                     : No warppoints
Format settings, Matrix                  : Default (H.263)
Codec ID                                 : XviD
Codec ID/Hint                            : XviD
Duration                                 : 1 h 24 min
Bit rate                                 : 1 598 kb/s
Width                                    : 720 pixels
Height                                   : 306 pixels
Display aspect ratio                     : 2.35:1
Frame rate                               : 23.976 (24000/1001) FPS
Color space                              : YUV
Chroma subsampling                       : 4:2:0
Bit depth                                : 8 bits
Scan type                                : Progressive
Compression mode                         : Lossy
Bits/(Pixel*Frame)                       : 0.303
Stream size                              : 971 MiB (88%)
Title                                    : RARBG - Tad.the.Lost.Explorer.and.the.Secret.of.King.Midas.2017.BRRip.XviD.MP3-RARBG
Writing library                          : Lavc57.107.100

Audio
ID                                       : 1
Format                                   : MPEG Audio
Format version                           : Version 1
Format profile                           : Layer 3
Format settings                          : Joint stereo / MS Stereo
Codec ID                                 : 55
Codec ID/Hint                            : MP3
Duration                                 : 1 h 24 min
Bit rate mode                            : Constant
Bit rate                                 : 192 kb/s
Channel(s)                               : 2 channels
Sampling rate                            : 48.0 kHz
Compression mode                         : Lossy
Stream size                              : 117 MiB (11%)
Alignment                                : Aligned on interleaves
Interleave, duration                     : 24  ms (0.58 video frame)
Interleave, preload duration             : 24  ms
Title                                    : RARBG - Tad.the.Lost.Explorer.and.the.Secret.of.King.Midas.2017.BRRip.XviD.MP3-RARBG
Image
Image
Image
Image

Tad.Jones.And.The.Secret.Of.King.Midas.2017.BRRip.XviD-RARBG.avi  [1.07 Gb]

Post Reply

Return to “Kids Corner”