[Flemish | French] Misère au Borinage (1933)

TV and Documentaries from around the world, excluding French language
Post Reply
marlowe62
Registered user
Registered user
Posts: 296
Joined: Fri Jan 21, 2011 6:05 am
Been thanked: 2 times

[Flemish | French] Misère au Borinage (1933)

Post by marlowe62 » Fri Jul 18, 2014 1:52 am

Misère au Borinage (1933)

Image
** Henri Storck. Les films sociaux - Cinematek (2011) / 3 movies / 83 m. **
BluRay.com



Joris Ivens & Henri Storck

Misère au Borinage
- sound version -

Miseria en Borinage / Borinage


(Belgium, 1933) [B&W, 28 m.].
En 1932, une grande grève a paralysé les charbonnages de Wallonie et la réponse patronale et policière a été sans pitié, le tout dans la sous-information et l'indifférence de la majorité du pays. André Thirifays, Pierre Vermeylen et tous les jeunes gens du club de l'écran indignés décident de témoigner de cette misère noire avec leur arme à eux, une caméra. (Allociné)
This is one of the first documentaries ever made that show the lives of coal miners and their families. This film is a social documentary describing the fate of some 15,000 miners in the Borinage, who in 1932 staged a strike in protest against the announcement by Belgian mine-owners of a 5% cut in wages. The film is still extremely moving and portrays men who were often treated worse than animals (The Labor Film Database).
- "Misère au Borinage (Misery In Borinage) by Ivens & Storck". Centre d'études wallonnes et de République. La Revue Toudi.

Code: Select all

** HD 720p VO / AC3 2.0 / 848x720 (1.178) / 00:28:19 (28 m.) **

General
Complete name                            : Misere+au+Borinage+(Joris+Ivens+&+Henri+Storck,+1933).mkv
Format                                   : Matroska
Format version                           : Version 4 / Version 2
File size                                : 833 MiB
Duration                                 : 28mn 19s
Overall bit rate                         : 4 111 Kbps
Movie name                               : Misère au Borinage (Joris Ivens & Henri Storck, 1933)
Encoded date                             : UTC 2014-06-11 22:02:09
Writing application                      : mkvmerge v6.9.1 ('Blue Panther') 32bit built on Apr 18 2014 18:15:44
Writing library                          : libebml v1.3.0 + libmatroska v1.4.1

Video
ID                                       : 1
Format                                   : AVC
Format/Info                              : Advanced Video Codec
Format profile                           : High@L4.1
Format settings, CABAC                   : Yes
Format settings, ReFrames                : 9 frames
Codec ID                                 : V_MPEG4/ISO/AVC
Duration                                 : 28mn 19s
Bit rate                                 : 3 660 Kbps
Width                                    : 848 pixels
Height                                   : 720 pixels
Display aspect ratio                     : 1.178
Frame rate mode                          : Constant
Frame rate                               : 24.000 fps
Color space                              : YUV
Chroma subsampling                       : 4:2:0
Bit depth                                : 8 bits
Scan type                                : Progressive
Bits/(Pixel*Frame)                       : 0.250
Stream size                              : 725 MiB (87%)
Writing library                          : x264 core 138 r2358 9e941d1
Encoding settings                        : cabac=1 / ref=9 / deblock=1:-3:-3 / analyse=0x3:0x113 / me=umh / subme=9 / psy=1 / psy_rd=1.00:0.15 / mixed_ref=1 / me_range=32 / chroma_me=1 / trellis=1 / 8x8dct=1 / cqm=0 / deadzone=21,11 / fast_pskip=0 / chroma_qp_offset=-3 / threads=3 / lookahead_threads=1 / sliced_threads=0 / nr=0 / decimate=1 / interlaced=0 / bluray_compat=0 / constrained_intra=0 / bframes=5 / b_pyramid=2 / b_adapt=2 / b_bias=0 / direct=1 / weightb=1 / open_gop=0 / weightp=2 / keyint=240 / keyint_min=24 / scenecut=40 / intra_refresh=0 / rc_lookahead=50 / rc=2pass / mbtree=1 / bitrate=3660 / ratetol=1.0 / qcomp=0.60 / qpmin=0 / qpmax=69 / qpstep=4 / cplxblur=20.0 / qblur=0.5 / vbv_maxrate=62500 / vbv_bufsize=78125 / nal_hrd=none / ip_ratio=1.40 / aq=1:1.20
Default                                  : Yes
Forced                                   : No

Audio
ID                                       : 2
Format                                   : AC-3
Format/Info                              : Audio Coding 3
Mode extension                           : CM (complete main)
Format settings, Endianness              : Big
Codec ID                                 : A_AC3
Duration                                 : 28mn 19s
Bit rate mode                            : Constant
Bit rate                                 : 448 Kbps
Channel(s)                               : 2 channels
Channel positions                        : Front: L R
Sampling rate                            : 48.0 KHz
Bit depth                                : 16 bits
Compression mode                         : Lossy
Stream size                              : 90.8 MiB (11%)
Language                                 : French
Default                                  : Yes
Forced                                   : No
Image Image Image Image Image Image Image Image Image
Image Image Image
Image Image Image Image Image
Image Image Image

Misere.au.Borinage.1933.720p.BluRay.x264.AC3-PSiF.mkv  [832.84 Mb]

Subtitles:
Misere.au.Borinage.1933.720p.BluRay.x264.Ac3-PSiF.Eng1OrigC.srt  [9.9 Kb]


Thanks to PSiF@ KG and qt66@SMz

[ Add all 2 links to your ed2k client ]

Post Reply

Return to “World TV”