[Français] Titan.AE.(2000).DUBBED.DVDRip.x264-Citronelle

Français, Portuguese, Español, Deutsch, Italiano, Nederlands, Polski, Dansk, Svenska, Norsk, Türkçe, Ruskij, Afrikaans, Arabic plus more. This section does not include movies which have been dubbed in English but does include movies where one of two or more audio tracks is in one of the above languages.
Post Reply
Citronelle
Newly registered user
Newly registered user
Posts: 1
Joined: Tue Jun 18, 2019 3:30 pm

[Français] Titan.AE.(2000).DUBBED.DVDRip.x264-Citronelle

Post by Citronelle » Tue Jun 18, 2019 6:21 pm

Image

https://www.IMDb.com/title/tt0120913/

VFF avec sous-titres forcés. Rippé par moi depuis le DVD référencé ASIN: B0791VZ962 sorti le 12 février 2018.

Code: Select all

General
Format                                   : MPEG-4
Format profile                           : Base Media
Codec ID                                 : isom
File size                                : 1.95 GiB
Duration                                 : 1h 31mn
Overall bit rate                         : 3 061 Kbps
Writing application                      : Lavf54.59.106

Video
ID                                       : 1
Format                                   : AVC
Format/Info                              : Advanced Video Codec
Format profile                           : High@L3.1
Format settings, CABAC                   : Yes
Format settings, ReFrames                : 4 frames
Codec ID                                 : avc1
Codec ID/Info                            : Advanced Video Coding
Duration                                 : 1h 31mn
Bit rate                                 : 2 851 Kbps
Width                                    : 720 pixels
Height                                   : 576 pixels
Display aspect ratio                     : 16:9
Frame rate mode                          : Constant
Frame rate                               : 29.970 fps
Standard                                 : PAL
Color space                              : YUV
Chroma subsampling                       : 4:2:0
Bit depth                                : 8 bits
Scan type                                : Progressive
Bits/(Pixel*Frame)                       : 0.229
Stream size                              : 1.82 GiB (93%)
Writing library                          : x264 core 133
Encoding settings                        : cabac=1 / ref=3 / deblock=1:0:0 / analyse=0x3:0x113 / me=dia / subme=3 / psy=1 / psy_rd=1.00:0.00 / mixed_ref=1 / me_range=16 / chroma_me=1 / trellis=1 / 8x8dct=1 / cqm=0 / deadzone=21,11 / fast_pskip=1 / chroma_qp_offset=0 / threads=4 / lookahead_threads=1 / sliced_threads=0 / nr=0 / decimate=1 / interlaced=0 / bluray_compat=0 / constrained_intra=0 / bframes=3 / b_pyramid=2 / b_adapt=1 / b_bias=0 / direct=1 / weightb=1 / open_gop=0 / weightp=2 / keyint=250 / keyint_min=25 / scenecut=40 / intra_refresh=0 / rc_lookahead=40 / rc=abr / mbtree=1 / bitrate=2851 / ratetol=1.0 / qcomp=0.60 / qpmin=0 / qpmax=69 / qpstep=4 / ip_ratio=1.40 / aq=1:1.00

Audio
ID                                       : 2
Format                                   : AAC
Format/Info                              : Advanced Audio Codec
Format profile                           : LC
Codec ID                                 : 40
Duration                                 : 1h 31mn
Bit rate mode                            : Constant
Bit rate                                 : 192 Kbps
Channel(s)                               : 6 channels
Channel positions                        : Front: L C R, Side: L R, LFE
Sampling rate                            : 48.0 KHz
Compression mode                         : Lossy
Delay relative to video                  : 67ms
Stream size                              : 125 MiB (6%)
Titan.AE.2000.TrueFrench.DVDRip.x264-Citronelle.mp4  [1.95 Gb]

Image
Image
Image
Image
Image
Image

Post Reply

Return to “European, South American & African”