Breeders.(1986).DVDRip.XviD-INFECT

Standard definition movies, that were made last century, ripped from a retail source (DVDRip, BDRip), excluding R5 DVDRips. Be aware that documentaries, foreign, animated and black & white movies have their own sections.
Post Reply
uggh

Breeders.(1986).DVDRip.XviD-INFECT

Post by uggh » Mon May 30, 2005 9:29 pm

Image

http://www.IMDb.com/title/tt0090771/

Plot Outline: The Manhattan General Hospital has admitted a string of young women who have been raped by something otherworldly. The perpetrator only attacks women who are virgins. Dr. Pace and Detective Andriotti work together to try and isolate the strange organic material found on the victims, and to try and locate the fiend. Soon the victims begin arising in a trance and leaving the hospital by an underground passage where their fate awaits them.

Code: Select all

General
Complete name                    : D:\Emule\Breeders.1986.DVDRip.XviD-INFECT.sharethefiles.com.avi
Format                           : AVI
Format/Info                      : Audio Video Interleave
File size                        : 700 MiB
Duration                         : 1h 13mn
Overall bit rate                 : 1 323 Kbps
Writing application              : VirtualDubMod 1.5.10.1 (build 2439/release)
Writing library                  : VirtualDubMod build 2439/release

Video
Format                           : MPEG-4 Visual
Format profile                   : Streaming Video@L1
Format settings, BVOP            : Yes
Format settings, QPel            : No
Format settings, GMC             : No warppoints
Format settings, Matrix          : Default
Muxing mode                      : Packed bitstream
Codec ID                         : XviD
Codec ID/Hint                    : XviD
Duration                         : 1h 13mn
Bit rate                         : 1 190 Kbps
Width                            : 608 pixels
Height                           : 320 pixels
Display aspect ratio             : 1.900
Frame rate                       : 25.000 fps
Resolution                       : 24 bits
Colorimetry                      : 4:2:0
Scan type                        : Progressive
Bits/(Pixel*Frame)               : 0.245
Stream size                      : 629 MiB (90%)
Writing library                  : XviD 1.0.3 (UTC 2004-12-20)

Audio
Format                           : MPEG Audio
Format version                   : Version 1
Format profile                   : Layer 3
Codec ID                         : 55
Codec ID/Hint                    : MP3
Duration                         : 1h 13mn
Bit rate mode                    : Variable
Bit rate                         : 120 Kbps
Minimum bit rate                 : 128 Kbps
Channel(s)                       : 2 channels
Sampling rate                    : 48.0 KHz
Resolution                       : 16 bits
Stream size                      : 63.6 MiB (9%)
Alignment                        : Aligned on interleaves
Interleave, duration             : 24 ms (0.60 video frame)
Interleave, preload duration     : 459 ms
Writing library                  : LAME3.96r
Encoding settings                : ABR
Image
Image
Image
Image
Image
Image

Breeders.1986.DVDRip.XviD-INFECT.avi  [699.93 Mb]
Breeders.1986.DVDRip.XviD-INFECT.rar  [2.46 Mb]

[ Add all 2 links to your ed2k client ]
Last edited by Andrei on Mon Feb 22, 2010 11:21 pm, edited 1 time in total.

Post Reply

Return to “Retail Rips (19xx) (BDRip, DVDRip)”