The.Man.From.Snowy.River.(1982).iNTERNAL.DVDRip.XviD-SPRiNTER

Standard definition movies, that were made last century, ripped from a retail source (DVDRip, BDRip), excluding R5 DVDRips. Be aware that documentaries, foreign, animated and black & white movies have their own sections.
Post Reply
memor
TV Moderator
TV Moderator
Posts: 5195
Joined: Tue Sep 17, 2013 10:59 am
Has thanked: 2 times
Been thanked: 4642 times

The.Man.From.Snowy.River.(1982).iNTERNAL.DVDRip.XviD-SPRiNTER

Post by memor » Fri Jun 16, 2017 12:42 pm

Image

http://www.IMDb.com/title/tt0084296/
The story of a boy suddenly alone in the world. The men who challenge him. And the girl who helps him become a man.

Code: Select all

SPRiNTER proudly presents...

██████████████████████████████████████████████████████████████████████████████████████████████

The.Man.from.Snowy.River.1982.iNTERNAL.DVDRip.XviD-SPRiNTER
http://www.IMDb.com/title/tt0084296/
Subtitles: English, Espanol

Date: 2010.01


Director: George Miller
Genre: Drama | Family | Romance | Western
Tagline:The story of a boy suddenly alone in the world. The men who challenge him. And the girl who helps him become a man. 


Cast
 
 Tom Burlinson ...  Jim Craig 
 Terence Donovan ...  Henry Craig 
 Kirk Douglas ...  Harrison / Spur 
 Tommy Dysart ...  Mountain Man 
 Bruce Kerr ...  Man in Street 
 David Bradshaw ...  Banjo Paterson 
 Sigrid Thornton ...  Jessica Harrison 
 Jack Thompson ...  Clancy 
 Tony Bonner ...  Kane 
 June Jago ...  Mrs. Bailey 
 Chris Haywood ...  Curly 
 Kristopher Steele ...  Moss 
 Gus Mercurio ...  Frew 
 Howard Eynon ...  Short Man 
 Lorraine Bayly ...  Rosemary Hume 




Release notes:


Enjoy!

██████████████████████████████████████████████████████████████████████████████████████████████

Format                           : AVI
Format/Info                      : Audio Video Interleave
File size                        : 702 MiB
Duration                         : 1h 44mn
Overall bit rate                 : 940 Kbps
Writing application              : VirtualDubMod 1.5.10.2 (build 2540/release)
Writing library                  : VirtualDubMod build 2540/release

Video
ID                               : 0
Format                           : MPEG-4 Visual
Format profile                   : AdvancedSimple@L5
Format settings, BVOP            : Yes
Format settings, QPel            : No
Format settings, GMC             : No warppoints
Format settings, Matrix          : Default (MPEG)
Muxing mode                      : Packed bitstream
Codec ID                         : XviD
Codec ID/Hint                    : XviD
Duration                         : 1h 44mn
Bit rate                         : 804 Kbps
Width                            : 608 pixels
Height                           : 256 pixels
Display aspect ratio             : 2.35:1
Frame rate                       : 23.976 fps
Resolution                       : 24 bits
Colorimetry                      : 4:2:0
Scan type                        : Progressive
Bits/(Pixel*Frame)               : 0.215
Stream size                      : 601 MiB (86%)
Writing library                  : XviD 1.2.1 (UTC 2008-12-04)

Audio
ID                               : 1
Format                           : MPEG Audio
Format version                   : Version 1
Format profile                   : Layer 3
Format_Settings_Mode             : Joint stereo / MS Stereo
Codec ID                         : 55
Codec ID/Hint                    : MP3
Duration                         : 1h 44mn
Bit rate mode                    : Variable
Bit rate                         : 123 Kbps
Nominal bit rate                 : 128 Kbps
Channel(s)                       : 2 channels
Sampling rate                    : 48.0 KHz
Resolution                       : 16 bits
Stream size                      : 91.7 MiB (13%)
Alignment                        : Aligned on interleaves
Interleave, duration             : 24 ms (0.58 video frame)
Interleave, preload duration     : 516 ms
Writing library                  : LAME3.90.
Encoding settings                : -m j -V 4 -q 2 -lowpass 17.6 --abr 128



██████████████████████████████████████████████████████████████████████████████████████████████
The.Man.From.Snowy.River.1982.iNTERNAL.DVDRip.XviD-SPRiNTER.avi  [702.20 Mb]
The.Man.From.Snowy.River.1982.EN.SP.Subs.iNTERNAL.DVDRip.XviD-SPRiNTER.rar  [1.05 Mb]


See also
Return.To.Snowy.River.1988.DVDRip.XviD-SAPHiRE
Snowy River: The McGregor Saga

[ Add all 2 links to your ed2k client ]

Post Reply

Return to “Retail Rips (19xx) (BDRip, DVDRip)”