Adele: Live At The Royal Albert Hall (2011) BDRip-AC3-XviD-3LTON

Single song videos as well any concerts, tours etc...
Post Reply
EzPimpinYa
Registered user
Registered user
Posts: 1715
Joined: Fri Jul 11, 2008 7:15 am
Been thanked: 14 times

Adele: Live At The Royal Albert Hall (2011) BDRip-AC3-XviD-3LTON

Post by EzPimpinYa »

[table=,padding:5px;][tr=,][td=4,,padding: 5px; align: center;background-color: #000000;]
Adele: Live At The Royal Albert Hall (2011)
[/td][/tr][tr=,][td=2,,padding: 5px;background-color: #0080FF;width: 50%;][center]GENRE: Soul Music[/center][/size][/td][td=2,,padding: 5px;background-color: #0080FF;width: 50%;]
Image
[/td][/tr][tr=,][td=2,,padding: 5px;background-color: #BFBFFF;]
Image
[/td][td=2,,padding: 5px;vertical-align: top;background-color: #BFBFFF;]
Description:
Live At The Royal Albert Hall was recorded on September 22 at the height of what has been an amazing year for Adele. Available on DVD and Blu-ray, "Live At The Royal Albert Hall" features the full 90 minute concert performance, plus special behind the scenes footage shot throughout the day leading up to the concert.
The package also includes an exclusive live CD of the entire show. This is the first time all of Adele's hits and best loved songs will be on one CD plus her stunning covers of Bonnie Raitt's "If I Can't Make You Love Me" and The Steeldrivers "If It Hadn't Been For Love"



[/td][/tr][tr=,][td=4,,padding:5px;background-color: #000000;]
TECHNICAL SPECIFICATION:
[/td][/tr][tr=,][td=4,,padding: 5px;background-color: #BFBFFF;]

Code: Select all

General
Complete name                    : C:\Users\Sunshine\Downloads\eMule\Incoming\Adele.Live.At.The.Royal.Albert.Hall.2011.BRRip.XviD-3LT0N.By.Phoenix.[eMule-DivX.com].avi
Format                           : AVI
Format/Info                      : Audio Video Interleave
File size                        : 898 MiB
Duration                         : 1h 39mn
Overall bit rate                 : 1 263 Kbps

Video
ID                               : 0
Format                           : MPEG-4 Visual
Format profile                   : Advanced Simple@L5
Format settings, BVOP            : 2
Format settings, QPel            : No
Format settings, GMC             : No warppoints
Format settings, Matrix          : Default (H.263)
Codec ID                         : XviD
Codec ID/Hint                    : XviD
Duration                         : 1h 39mn
Bit rate                         : 806 Kbps
Width                            : 640 pixels
Height                           : 272 pixels
Display aspect ratio             : 2.35:1
Frame rate                       : 29.970 fps
Color space                      : YUV
Chroma subsampling               : 4:2:0
Bit depth                        : 8 bits
Scan type                        : Progressive
Compression mode                 : Lossy
Bits/(Pixel*Frame)               : 0.155
Stream size                      : 573 MiB (64%)
Writing library                  : XviD 1.2.1 (UTC 2008-12-04)

Audio
ID                               : 1
Format                           : AC-3
Format/Info                      : Audio Coding 3
Mode extension                   : CM (complete main)
Codec ID                         : 2000
Duration                         : 1h 39mn
Bit rate mode                    : Constant
Bit rate                         : 448 Kbps
Channel(s)                       : 6 channels
Channel positions                : Front: L C R, Side: L R, LFE
Sampling rate                    : 48.0 KHz
Bit depth                        : 16 bits
Compression mode                 : Lossy
Stream size                      : 319 MiB (35%)
Alignment                        : Aligned on interleaves
Interleave, duration             : 64 ms (1.92 video frames)
Interleave, preload duration     : 192 ms
Title                            : English - 3LT0N
[/td][td=1,,padding: 5px;][/td][td=1,,padding: 5px;][/td][/tr][tr=,][td=4,,padding:5px;background-color: #000000;]
SCREENSHOTS:
[/td][/tr][tr=,][td=4,,padding:5px;background-color: #BFBFFF;]
Image

Image

Image

Image

Image

Image
[/td][/tr][tr=,][td=4,,padding:5px;background-color: #000000;]
TRAILER:
[/td][/tr][tr=,][td=4,,padding:5px;background-color: #BFBFFF;][/td][/tr][tr=,][td=4,,padding:5px;background-color: #000000;]
ED2K LINKS:
[/td][/tr][tr=,][td=4,,padding:5px;background-color: #BFBFFF;][/td][/tr][/table]

Here2Share
Donator
Donator
Posts: 276
Joined: Thu Jul 21, 2011 9:00 am
Has thanked: 1939 times
Been thanked: 2 times

Re: Adele: Live At The Royal Albert Hall (2011) BDRip-AC3-XviD-3LTON

Post by Here2Share »

:D :D :D So many Thanks for the share! 8-) Such a voice!

SaltedNuts
Donator
Donator
Posts: 94
Joined: Sun Dec 02, 2007 6:12 pm
Location: The Old Oak

Re: Adele: Live At The Royal Albert Hall (2011) BDRip-AC3-XviD-3LTON

Post by SaltedNuts »

Many thanx EzPimpinYa :clap

Mark_Man
Donator
Donator
Posts: 121
Joined: Wed Oct 20, 2010 9:58 am
Been thanked: 2 times

Re: Adele: Live At The Royal Albert Hall (2011) BDRip-AC3-XviD-3LTON

Post by Mark_Man »

thanks so much EZ , Adelle has one of the best voice's i have heard in a long time much appreciated :clap

nursemorph
Donator
Donator
Posts: 31
Joined: Tue Sep 07, 2010 4:09 pm
Has thanked: 211 times

Re: Adele: Live At The Royal Albert Hall (2011) BDRip-AC3-XviD-3LTON

Post by nursemorph »

mark123 wrote:thanks so much EZ , Adelle has one of the best voice's i have heard in a long time much appreciated :clap
I totally agree with you there. Her voice is on a par with some of the purest singing voices ever such as Karen Carpenter and Eva Cassidy. She really portrays so much emotion and soul into her songs that you can't help but get emotionally involved with her songs and very few artists can do that. I quite often will listen to her albums over and over again and never grow tired of them. Thankyou very much EZ for posting this.....I love listening to the album of this show so I greatly look forward to the DVD. :)

EzPimpinYa
Registered user
Registered user
Posts: 1715
Joined: Fri Jul 11, 2008 7:15 am
Been thanked: 14 times

Re: Adele: Live At The Royal Albert Hall (2011) BDRip-AC3-XviD-3LTON

Post by EzPimpinYa »

You're welcome, enjoy :)

lukehere101
Newly registered user
Newly registered user
Posts: 1
Joined: Sat Jun 22, 2013 5:01 pm

Re: Adele: Live At The Royal Albert Hall (2011) BDRip-AC3-XviD-3LTON

Post by lukehere101 »

What do you click on to download this?

I've installed eMule and clicked on the link but nothing happens.

Am I missing something?

Thanks

Post Reply

Return to “Music Videos”