Jigsaw.(2017).WEBRip.AC3.XviD-FGT

Any non-retail/cinema releases which are now available in the retail movie sections will be moved here.
Locked
bjorn j
Donator
Donator
Posts: 2974
Joined: Wed Jan 07, 2009 1:49 pm
Has thanked: 24 times
Been thanked: 5812 times

Jigsaw.(2017).WEBRip.AC3.XviD-FGT

Post by bjorn j » Tue Jan 09, 2018 2:37 pm

Image

http://www.IMDb.com/title/tt3348730/
Genres: Crime, Horror, Mystery

It is the eighth installment in the Saw franchise.

Bodies are turning up around the city, each having met a uniquely gruesome demise. As the investigation proceeds, evidence points to one suspect: John Kramer, the man known as Jigsaw, who has been dead for ten years.

Code: Select all

Video
ID                                       : 0
Format                                   : MPEG-4 Visual
Format profile                           : Simple@L5
Format settings, BVOP                    : No
Format settings, QPel                    : No
Format settings, GMC                     : No warppoints
Format settings, Matrix                  : Default (H.263)
Codec ID                                 : XviD
Codec ID/Hint                            : XviD
Duration                                 : 1 h 32 min
Bit rate                                 : 1 516 kb/s
Width                                    : 720 pixels
Height                                   : 304 pixels
Display aspect ratio                     : 2.40:1
Frame rate                               : 23.976 (24000/1001) FPS
Color space                              : YUV
Chroma subsampling                       : 4:2:0
Bit depth                                : 8 bits
Scan type                                : Progressive
Compression mode                         : Lossy
Bits/(Pixel*Frame)                       : 0.289
Stream size                              : 1 001 MiB (79%)
Writing library                          : Lavc58.1.100

Audio
ID                                       : 1
Format                                   : AC-3
Format/Info                              : Audio Coding 3
Codec ID                                 : 2000
Duration                                 : 1 h 32 min
Bit rate mode                            : Constant
Bit rate                                 : 384 kb/s
Channel(s)                               : 6 channels
Channel positions                        : Front: L C R, Side: L R, LFE
Sampling rate                            : 48.0 kHz
Frame rate                               : 31.250 FPS (1536 SPF)
Bit depth                                : 16 bits
Compression mode                         : Lossy
Stream size                              : 253 MiB (20%)
Alignment                                : Aligned on interleaves
Interleave, duration                     : 42  ms (1.00 video frame)
Interleave, preload duration             : 512  ms
Service kind                             : Complete Main
Image
Image
Image

Jigsaw.2017.WEB-DL.XviD.AC3-FGT.avi  [1.23 Gb]

Locked

Return to “Non-Retail Archive”