Sum1.(2017).WEBRip.AC3.XviD-FGT

Any non-retail/cinema releases which are now available in the retail movie sections will be moved here.
Locked
bjorn j
Donator
Donator
Posts: 2974
Joined: Wed Jan 07, 2009 1:49 pm
Has thanked: 24 times
Been thanked: 5812 times

Sum1.(2017).WEBRip.AC3.XviD-FGT

Post by bjorn j » Sat Dec 02, 2017 1:10 am

Image

http://www.IMDb.com/title/tt4279116/
Genres: Horror, Sci-Fi, Thriller

An aggressive race of aliens took over Planet Earth and humanity's at its end, living in giant bunkers below ground. Young Military rookie S.U.M.1 (Iwan Rheon) is sent to the surface to save a group of unprotected survivors.

S.U.M.1, a committed young man who has lived his whole life underground, reports to his 100-day task. He enters an alien and hostile world. His mission is to guard an automatic defense circle that keeps the Nonesuch at bay. As the news report of frequent, devastating attacks, the routine military operation slowly becomes a nightmare. Isolation and paranoia begin to eat away at the young soldier's mind. Are the Nonesuch truly hiding in the dark forest waiting to strike at any moment or is S.U.M.1 being pushed into madness?

Code: Select all

Video
ID                                       : 0
Format                                   : MPEG-4 Visual
Format profile                           : Simple@L5
Format settings, BVOP                    : No
Format settings, QPel                    : No
Format settings, GMC                     : No warppoints
Format settings, Matrix                  : Default (H.263)
Codec ID                                 : XviD
Codec ID/Hint                            : XviD
Duration                                 : 1h 35mn
Bit rate                                 : 1 274 Kbps
Width                                    : 720 pixels
Height                                   : 304 pixels
Display aspect ratio                     : 2.40:1
Frame rate                               : 23.976 fps
Color space                              : YUV
Chroma subsampling                       : 4:2:0
Bit depth                                : 8 bits
Scan type                                : Progressive
Compression mode                         : Lossy
Bits/(Pixel*Frame)                       : 0.243
Stream size                              : 868 MiB (76%)
Writing library                          : Lavc58.1.100

Audio
ID                                       : 1
Format                                   : AC-3
Format/Info                              : Audio Coding 3
Mode extension                           : CM (complete main)
Format settings, Endianness              : Big
Codec ID                                 : 2000
Duration                                 : 1h 35mn
Bit rate mode                            : Constant
Bit rate                                 : 384 Kbps
Channel(s)                               : 6 channels
Channel positions                        : Front: L C R, Side: L R, LFE
Sampling rate                            : 48.0 KHz
Bit depth                                : 16 bits
Compression mode                         : Lossy
Stream size                              : 262 MiB (23%)
Alignment                                : Aligned on interleaves
Interleave, duration                     : 42 ms (1.00 video frame)
Interleave, preload duration             : 512 ms
Image
Image
Image

Alien.Invasion.S.U.M.1.2017.WEB-DL.XviD.AC3-FGT.avi  [1.11 Gb]

Locked

Return to “Non-Retail Archive”