Almost.Friends.(2016).WEBRip.x264-FGT

Any non-retail/cinema releases which are now available in the retail movie sections will be moved here.
Locked
bjorn j
Donator
Donator
Posts: 2968
Joined: Wed Jan 07, 2009 1:49 pm
Has thanked: 24 times
Been thanked: 5803 times

Almost.Friends.(2016).WEBRip.x264-FGT

Post by bjorn j » Fri Nov 17, 2017 4:35 pm

Image

http://www.IMDb.com/title/tt4955566/
Genres: Comedy, Drama

Charlie is an unmotivated man in his mid 20s still living at home with his mother and stepfather who falls for a young woman who has a serious boyfriend.

Once a promising young chef, Charlie (Freddie Highmore) is now an unmotivated twenty-something who lives at home with his mom (Marg Helgenberger) and stepfather while working at a small movie theatre and living vicariously through his best friend, Ben (Haley Joel Osment). His life takes an unpredictable turn however, when he finds himself falling for local barista Amber (Odeya Rush). Problem is, Amber has her own distractions- her mooching roommate (Jake Abel) a track star boyfriend (Taylor John Smith) and steadfast plans to move to New York City. On top of that, Charlie's estranged father (Christopher Meloni) unexpectedly re-enters his life just as he begins to take a long, hard look at where he's going and who he wants to be. With conflict after conflict piling on, will Charlie reach his tipping point or will he finally find the path forward?

Code: Select all

Video
ID                                       : 1
Format                                   : AVC
Format/Info                              : Advanced Video Codec
Format profile                           : High@L3.1
Format settings, CABAC                   : Yes
Format settings, ReFrames                : 5 frames
Codec ID                                 : avc1
Codec ID/Info                            : Advanced Video Coding
Duration                                 : 1h 41mn
Bit rate                                 : 1 100 Kbps
Width                                    : 720 pixels
Height                                   : 304 pixels
Display aspect ratio                     : 2.40:1
Original display aspect ratio            : 2.40:1
Frame rate mode                          : Constant
Frame rate                               : 23.976 fps
Color space                              : YUV
Chroma subsampling                       : 4:2:0
Bit depth                                : 8 bits
Scan type                                : Progressive
Bits/(Pixel*Frame)                       : 0.210
Stream size                              : 793 MiB (89%)
Title                                    : Almost.Friends.2016.WEB-DL.x264-FGT

Audio
ID                                       : 2
Format                                   : AAC
Format/Info                              : Advanced Audio Codec
Format profile                           : LC
Codec ID                                 : 40
Duration                                 : 1h 41mn
Duration_LastFrame                       : -11ms
Bit rate mode                            : Constant
Bit rate                                 : 128 Kbps
Channel(s)                               : 2 channels
Channel positions                        : Front: L R
Sampling rate                            : 48.0 KHz
Compression mode                         : Lossy
Stream size                              : 93.2 MiB (10%)
Title                                    : Almost.Friends.2016.WEB-DL.x264-FGT
Language                                 : English
Image
Image
Image

Almost.Friends.2016.WEB-DL.x264-FGT.mp4  [889.75 Mb]

Locked

Return to “Non-Retail Archive”