Justice.(2017).HDRip.AC3.XviD-EVO

Any non-retail/cinema releases which are now available in the retail movie sections will be moved here.
Locked
bjorn j
Donator
Donator
Posts: 3313
Joined: Wed Jan 07, 2009 1:49 pm
Has thanked: 26 times
Been thanked: 5254 times

Justice.(2017).HDRip.AC3.XviD-EVO

Post by bjorn j » Fri Sep 15, 2017 7:48 pm

Image

http://www.IMDb.com/title/tt5143890/
Genre: Western

A U.S. Marshal seeking justice for his brother's murder defends a small town from a corrupt Mayor and his henchmen with intents to revive the civil war.

It's 1868 and the war has been over for three years. An old abandoned mine is now being transformed into a military stronghold by a corrupt Mayor and band of blood thirsty outlaws whom are a part of a larger web hell-bent on a re-surge of the civil war. When a US Marshal, James McCord comes to town only to find out that his brother has been murdered, his search for the killer takes him on life or death struggle for a much greater cause.

Code: Select all

Video
ID                                       : 0
Format                                   : MPEG-4 Visual
Format profile                           : Advanced Simple@L5
Format settings, BVOP                    : 2
Format settings, QPel                    : No
Format settings, GMC                     : No warppoints
Format settings, Matrix                  : Default (H.263)
Muxing mode                              : Packed bitstream
Codec ID                                 : XviD
Codec ID/Hint                            : XviD
Duration                                 : 1h 32mn
Bit rate                                 : 1 736 Kbps
Width                                    : 720 pixels
Height                                   : 400 pixels
Display aspect ratio                     : 16:9
Frame rate                               : 23.976 fps
Color space                              : YUV
Chroma subsampling                       : 4:2:0
Bit depth                                : 8 bits
Scan type                                : Progressive
Compression mode                         : Lossy
Bits/(Pixel*Frame)                       : 0.251
Stream size                              : 1.12 GiB (82%)
Writing library                          : XviD 66

Audio
ID                                       : 1
Format                                   : AC-3
Format/Info                              : Audio Coding 3
Mode extension                           : CM (complete main)
Format settings, Endianness              : Big
Codec ID                                 : 2000
Duration                                 : 1h 32mn
Bit rate mode                            : Constant
Bit rate                                 : 384 Kbps
Channel(s)                               : 6 channels
Channel positions                        : Front: L C R, Side: L R, LFE
Sampling rate                            : 48.0 KHz
Bit depth                                : 16 bits
Compression mode                         : Lossy
Stream size                              : 253 MiB (18%)
Alignment                                : Aligned on interleaves
Interleave, duration                     : 42 ms (1.00 video frame)
Interleave, preload duration             : 512 ms
Image
Image
Image
Image

Justice.2017.HDRip.XviD.AC3-EVO.avi  [1.37 Gb]

Locked

Return to “Non-Retail Archive”