Pirates.Of.The.Caribbean.Dead.Men.Tell.No.Tales.(aka.Salazar's.Revenge).(2017).WEBRip.720p.AC3.x264-EVO

Any non-retail/cinema releases which are now available in the retail movie sections will be moved here.
Locked
bjorn j
Donator
Donator
Posts: 2974
Joined: Wed Jan 07, 2009 1:49 pm
Has thanked: 24 times
Been thanked: 5812 times

Pirates.Of.The.Caribbean.Dead.Men.Tell.No.Tales.(aka.Salazar's.Revenge).(2017).WEBRip.720p.AC3.x264-EVO

Post by bjorn j » Tue Sep 05, 2017 10:50 pm

Image

http://www.IMDb.com/title/tt1790809/
Genres: Action, Adventure, Fantasy

Captain Jack Sparrow searches for the trident of Poseidon while being pursued by an undead sea captain and his crew.

The infamous Captain Jack Sparrow is no stranger to trouble, and that trend continues while he searches for an ancient and powerful artifact, the Trident of Poseidon. Predictably, Captain Jack finds himself in yet another precarious position in his search for the Trident. A pirate crew of old rivals, the cursed Capitan Salazar and his fellow ghost pirates seek to escape from their prison in the depths of the Devil's Triangle and find the Trident of Poseidon for themselves. With it, they plan to wrest control of the seven seas and finally exact their plot of revenge against Captain Jack.

Code: Select all

Format                                   : Matroska
File size                                : 3.97 GiB
Duration                                 : 2h 9mn
Overall bit rate                         : 4 404 Kbps

Video
ID                                       : 1
Format                                   : AVC
Format/Info                              : Advanced Video Codec
Format profile                           : Main@L3.1
Format settings, CABAC                   : No
Format settings, ReFrames                : 2 frames
Codec ID                                 : V_MPEG4/ISO/AVC
Duration                                 : 2h 9mn
Bit rate                                 : 3 933 Kbps
Width                                    : 1 280 pixels
Height                                   : 532 pixels
Display aspect ratio                     : 2.40:1
Frame rate mode                          : Constant
Frame rate                               : 23.976 fps
Color space                              : YUV
Chroma subsampling                       : 4:2:0
Bit depth                                : 8 bits
Scan type                                : Progressive
Bits/(Pixel*Frame)                       : 0.241
Stream size                              : 3.55 GiB (89%)
Language                                 : English
Default                                  : Yes
Forced                                   : No
Color primaries                          : BT.709
Transfer characteristics                 : BT.709
Matrix coefficients                      : BT.709
Color range                              : Limited

Audio
ID                                       : 2
Format                                   : AC-3
Format/Info                              : Audio Coding 3
Mode extension                           : CM (complete main)
Format settings, Endianness              : Big
Codec ID                                 : A_AC3
Duration                                 : 2h 9mn
Bit rate mode                            : Constant
Bit rate                                 : 384 Kbps
Channel(s)                               : 6 channels
Channel positions                        : Front: L C R, Side: L R, LFE
Sampling rate                            : 48.0 KHz
Bit depth                                : 16 bits
Compression mode                         : Lossy
Stream size                              : 355 MiB (9%)
Language                                 : English
Default                                  : Yes
Forced                                   : No

Menu
00:00:00.000                             : en:Father's Curse
00:05:50.000                             : en:"Arrest Him"
00:08:34.000                             : en:Captain Salazar
00:13:40.000                             : en:"Stop That Witch"
00:16:29.000                             : en:Runaway Bank
00:22:34.000                             : en:Bad Luck
00:25:19.000                             : en:"Hidden In The Stars"
00:28:06.000                             : en:"We Are Free"
00:31:41.000                             : en:Blood Moon
00:33:44.000                             : en:"Looking For A Pirate"
00:37:02.000                             : en:Barbossa's Treasure
00:42:27.000                             : en:"Final Words"
00:49:09.000                             : en:"Cordiality"
00:54:00.000                             : en:Bluffing
00:57:19.000                             : en:"Closer Than You Think"
01:00:38.000                             : en:Salazar's Story
01:08:30.000                             : en:Mutiny
01:11:57.000                             : en:Ghost Sharks
01:16:51.000                             : en:"Unscratchable Itch"
01:19:27.000                             : en:Wedding Day
01:25:04.000                             : en:"Just Believe Her"
01:27:42.000                             : en:"So You're An Orphan"
01:31:43.000                             : en:"Nowhere To Hide"
01:38:22.000                             : en:The Island
01:42:36.000                             : en:Poseidon's Trident
01:47:23.000                             : en:"All Must Divide"
01:52:58.000                             : en:"Let Me Tell You A Tale"
01:59:10.000                             : en:Credits
Image

Pirates.Of.The.Caribbean.Dead.Men.Tell.No.Tales.2017.720p.WEB-DL.H264.AC3-EVO.mkv  [3.97 Gb]

Locked

Return to “Non-Retail Archive”