Bushwick.(2017).WEBRip.AC3.XviD-FGT

Any non-retail/cinema releases which are now available in the retail movie sections will be moved here.
Locked
bjorn j
Donator
Donator
Posts: 3330
Joined: Wed Jan 07, 2009 1:49 pm
Has thanked: 26 times
Been thanked: 5355 times

Bushwick.(2017).WEBRip.AC3.XviD-FGT

Post by bjorn j » Fri Aug 25, 2017 11:49 am

Image

http://www.IMDb.com/title/tt4720702/
Genres: Action, Adventure

When a Texas military force invades their Brooklyn neighborhood, 20-year-old Lucy and war veteran Stupe must depend on each other to survive.

BUSHWICK tells the story of twenty-year- old Lucy (Snow) and war veteran Stupe (Bautista). Texas is trying to secede from the U.S., and NYC is being used as a negotiation tool. Lucy meets Stupe after coming up from the subway into the military invasion of Brooklyn. Together they decide to cross the treacherous five blocks of Bushwick - littered with looters, local militias, the invading forces, and one crazy cousin - in order to get home and be reunited with Lucy's grandmother.

Code: Select all

Video
ID                                       : 0
Format                                   : MPEG-4 Visual
Format profile                           : Simple@L5
Format settings, BVOP                    : No
Format settings, QPel                    : No
Format settings, GMC                     : No warppoints
Format settings, Matrix                  : Default (H.263)
Codec ID                                 : XviD
Codec ID/Hint                            : XviD
Duration                                 : 1 h 33 min
Bit rate                                 : 1 786 kb/s
Width                                    : 720 pixels
Height                                   : 304 pixels
Display aspect ratio                     : 2.40:1
Frame rate                               : 23.976 (24000/1001) FPS
Color space                              : YUV
Chroma subsampling                       : 4:2:0
Bit depth                                : 8 bits
Scan type                                : Progressive
Compression mode                         : Lossy
Bits/(Pixel*Frame)                       : 0.340
Stream size                              : 1.17 GiB (82%)
Writing library                          : Lavc57.100.103

Audio
ID                                       : 1
Format                                   : AC-3
Format/Info                              : Audio Coding 3
Format settings, Endianness              : Big
Codec ID                                 : 2000
Duration                                 : 1 h 33 min
Bit rate mode                            : Constant
Bit rate                                 : 384 kb/s
Channel(s)                               : 6 channels
Channel positions                        : Front: L C R, Side: L R, LFE
Sampling rate                            : 48.0 kHz
Frame rate                               : 31.250 FPS (1536 spf)
Bit depth                                : 16 bits
Compression mode                         : Lossy
Stream size                              : 258 MiB (18%)
Alignment                                : Aligned on interleaves
Interleave, duration                     : 42  ms (1.00 video frame)
Interleave, preload duration             : 512  ms
Service kind                             : Complete Main
Image
Image
Image

Bushwick.2017.WEB-DL.XviD.AC3-FGT.avi  [1.43 Gb]

Locked

Return to “Non-Retail Archive”