Bushwick.(2017).WEBRip.1080p.AC3.x264-FGT

Any non-retail/cinema releases which are now available in the retail movie sections will be moved here.
Locked
bjorn j
Donator
Donator
Posts: 3330
Joined: Wed Jan 07, 2009 1:49 pm
Has thanked: 26 times
Been thanked: 5355 times

Bushwick.(2017).WEBRip.1080p.AC3.x264-FGT

Post by bjorn j » Fri Aug 25, 2017 11:47 am

Image

http://www.IMDb.com/title/tt4720702/
Genres: Action, Adventure

When a Texas military force invades their Brooklyn neighborhood, 20-year-old Lucy and war veteran Stupe must depend on each other to survive.

BUSHWICK tells the story of twenty-year- old Lucy (Snow) and war veteran Stupe (Bautista). Texas is trying to secede from the U.S., and NYC is being used as a negotiation tool. Lucy meets Stupe after coming up from the subway into the military invasion of Brooklyn. Together they decide to cross the treacherous five blocks of Bushwick - littered with looters, local militias, the invading forces, and one crazy cousin - in order to get home and be reunited with Lucy's grandmother.

Code: Select all

Video
ID                                       : 1
Format                                   : AVC
Format/Info                              : Advanced Video Codec
Format profile                           : High@L4
Format settings, CABAC                   : Yes
Format settings, ReFrames                : 5 frames
Codec ID                                 : V_MPEG4/ISO/AVC
Duration                                 : 1 h 33 min
Bit rate                                 : 4 537 kb/s
Width                                    : 1 910 pixels
Height                                   : 796 pixels
Display aspect ratio                     : 2.40:1
Frame rate mode                          : Constant
Frame rate                               : 23.976 (24000/1001) FPS
Color space                              : YUV
Chroma subsampling                       : 4:2:0
Bit depth                                : 8 bits
Scan type                                : Progressive
Bits/(Pixel*Frame)                       : 0.124
Stream size                              : 2.97 GiB (90%)
Title                                    : Bushwick.2017.1080p.WEB-DL.DD5.1.H264-FGT
Language                                 : English
Default                                  : Yes
Forced                                   : No
Color range                              : Limited
Color primaries                          : BT.709
Transfer characteristics                 : BT.709
Matrix coefficients                      : BT.709

Audio
ID                                       : 2
Format                                   : AC-3
Format/Info                              : Audio Coding 3
Format settings, Endianness              : Big
Codec ID                                 : A_AC3
Duration                                 : 1 h 33 min
Bit rate mode                            : Constant
Bit rate                                 : 384 kb/s
Channel(s)                               : 6 channels
Channel positions                        : Front: L C R, Side: L R, LFE
Sampling rate                            : 48.0 kHz
Frame rate                               : 31.250 FPS (1536 spf)
Bit depth                                : 16 bits
Compression mode                         : Lossy
Delay relative to video                  : -42 ms
Stream size                              : 258 MiB (8%)
Title                                    : Bushwick.2017.1080p.WEB-DL.DD5.1.H264-FGT
Language                                 : English
Service kind                             : Complete Main
Default                                  : Yes
Forced                                   : No

Menu
00:00:00.000                             : en:01
00:05:58.000                             : en:02
00:11:58.000                             : en:03
00:17:41.000                             : en:04
00:23:30.000                             : en:05
00:29:19.000                             : en:06
00:35:41.000                             : en:07
00:41:35.000                             : en:08
00:47:32.000                             : en:09
00:53:09.000                             : en:10
00:59:00.000                             : en:11
01:05:11.000                             : en:12
01:10:59.000                             : en:13
01:16:33.000                             : en:14
01:23:01.000                             : en:15
01:29:04.000                             : en:16
Image

Bushwick.2017.1080p.WEB-DL.DD5.1.H264-FGT.mkv  [3.29 Gb]

Locked

Return to “Non-Retail Archive”