The.Mummy.(2017).WEBRip.1080p.AC3.x264-EVO

Any non-retail/cinema releases which are now available in the retail movie sections will be moved here.
Locked
bjorn j
Donator
Donator
Posts: 3329
Joined: Wed Jan 07, 2009 1:49 pm
Has thanked: 26 times
Been thanked: 5343 times

The.Mummy.(2017).WEBRip.1080p.AC3.x264-EVO

Post by bjorn j » Thu Aug 03, 2017 1:20 am

Image

http://www.IMDb.com/title/tt2345759/
Genres: Action, Adventure, Fantasy

An ancient princess is awakened from her crypt beneath the desert, bringing with her malevolence grown over millennia, and terrors that defy human comprehension.

A princess from ancient times, Princess Ahmanet, believed she had a destiny that included rule over the entire world. She lost the life that she believed she deserved when she was put through the horrifying process of mummification and then sealed away deep underneath the desert far from people. Ahmanet's existence was forgotten by the fragility of human memory and the sands of time. Until... In the near future, a modern team found her tomb and decided to transport it back to civilization. They did not realize that she was a wrathful creature. They did not understand what they unleashed.

Code: Select all

Format                                   : Matroska
File size                                : 3.86 GiB
Duration                                 : 1h 50mn
Overall bit rate                         : 5 017 Kbps

Video
ID                                       : 4
Format                                   : AVC
Format/Info                              : Advanced Video Codec
Format profile                           : High@L4.0
Format settings, CABAC                   : Yes
Format settings, ReFrames                : 5 frames
Codec ID                                 : V_MPEG4/ISO/AVC
Duration                                 : 1h 50mn
Bit rate                                 : 4 533 Kbps
Width                                    : 1 916 pixels
Height                                   : 792 pixels
Display aspect ratio                     : 2.40:1
Frame rate mode                          : Constant
Frame rate                               : 23.976 fps
Color space                              : YUV
Chroma subsampling                       : 4:2:0
Bit depth                                : 8 bits
Scan type                                : Progressive
Bits/(Pixel*Frame)                       : 0.125
Stream size                              : 3.49 GiB (90%)
Language                                 : English
Default                                  : Yes
Forced                                   : No
Color primaries                          : BT.709
Transfer characteristics                 : BT.709
Matrix coefficients                      : BT.709
Color range                              : Limited

Audio
ID                                       : 1
Format                                   : AC-3
Format/Info                              : Audio Coding 3
Mode extension                           : CM (complete main)
Format settings, Endianness              : Big
Codec ID                                 : A_AC3
Duration                                 : 1h 50mn
Bit rate mode                            : Constant
Bit rate                                 : 384 Kbps
Channel(s)                               : 6 channels
Channel positions                        : Front: L C R, Side: L R, LFE
Sampling rate                            : 48.0 KHz
Bit depth                                : 16 bits
Compression mode                         : Lossy
Stream size                              : 302 MiB (8%)
Language                                 : English
Default                                  : Yes
Forced                                   : No

Text #1
ID                                       : 2
Format                                   : UTF-8
Codec ID                                 : S_TEXT/UTF8
Codec ID/Info                            : UTF-8 Plain Text
Title                                    : Full
Language                                 : English
Default                                  : No
Forced                                   : No

Text #2
ID                                       : 3
Format                                   : UTF-8
Codec ID                                 : S_TEXT/UTF8
Codec ID/Info                            : UTF-8 Plain Text
Title                                    : Forced
Language                                 : English
Default                                  : Yes
Forced                                   : Yes

Menu
00:00:00.000                             : en:1
00:08:19.708                             : en:2
00:13:19.924                             : en:3
00:19:32.463                             : en:4
00:24:41.146                             : en:5
00:28:55.108                             : en:6
00:35:42.390                             : en:7
00:39:37.041                             : en:8
00:47:01.068                             : en:9
00:50:58.638                             : en:10
00:56:50.740                             : en:11
01:00:44.849                             : en:12
01:08:59.009                             : en:13
01:16:04.851                             : en:14
01:19:39.440                             : en:15
01:23:17.407                             : en:16
01:26:27.847                             : en:17
01:33:35.941                             : en:18
01:37:03.982                             : en:19
01:39:48.980                             : en:20
Image

The.Mummy.2017.1080p.WEB-DL.H264.AC3-EVO.mkv  [3.86 Gb]

Locked

Return to “Non-Retail Archive”