Shot.Caller.(2017).HDRip.AC3.XviD-EVO

Any non-retail/cinema releases which are now available in the retail movie sections will be moved here.
Locked
bjorn j
Donator
Donator
Posts: 3329
Joined: Wed Jan 07, 2009 1:49 pm
Has thanked: 26 times
Been thanked: 5343 times

Shot.Caller.(2017).HDRip.AC3.XviD-EVO

Post by bjorn j » Tue Jul 25, 2017 1:26 pm

Image

http://www.IMDb.com/title/tt4633690/
Genres: Crime, Drama, Thriller

A newly released prison gangster is forced by the leaders of his gang to orchestrate a major crime with a brutal rival gang on the streets of Southern California.

Code: Select all

Video
ID                                       : 0
Format                                   : MPEG-4 Visual
Format profile                           : Advanced Simple@L5
Format settings, BVOP                    : 2
Format settings, QPel                    : No
Format settings, GMC                     : No warppoints
Format settings, Matrix                  : Default (H.263)
Muxing mode                              : Packed bitstream
Codec ID                                 : XviD
Codec ID/Hint                            : XviD
Duration                                 : 2h 0mn
Bit rate                                 : 1 239 Kbps
Width                                    : 720 pixels
Height                                   : 304 pixels
Display aspect ratio                     : 2.35:1
Frame rate                               : 23.976 fps
Color space                              : YUV
Chroma subsampling                       : 4:2:0
Bit depth                                : 8 bits
Scan type                                : Progressive
Compression mode                         : Lossy
Bits/(Pixel*Frame)                       : 0.236
Stream size                              : 1.04 GiB (76%)
Writing library                          : XviD 66

Audio
ID                                       : 1
Format                                   : AC-3
Format/Info                              : Audio Coding 3
Mode extension                           : CM (complete main)
Format settings, Endianness              : Big
Codec ID                                 : 2000
Duration                                 : 2h 0mn
Bit rate mode                            : Constant
Bit rate                                 : 384 Kbps
Channel(s)                               : 6 channels
Channel positions                        : Front: L C R, Side: L R, LFE
Sampling rate                            : 48.0 KHz
Bit depth                                : 16 bits
Compression mode                         : Lossy
Stream size                              : 331 MiB (24%)
Alignment                                : Aligned on interleaves
Interleave, duration                     : 64 ms (1.53 video frames)
Interleave, preload duration             : 192 ms
Image
Image
Image
Image

Shot.Caller.2017.HDRip.XviD.AC3-EVO.avi  [1.37 Gb]

Locked

Return to “Non-Retail Archive”