Killing.Ground.(2016).WEBRip.1080p.AC3.x264-FGT

Any non-retail/cinema releases which are now available in the retail movie sections will be moved here.
Locked
bjorn j
Donator
Donator
Posts: 3313
Joined: Wed Jan 07, 2009 1:49 pm
Has thanked: 26 times
Been thanked: 5254 times

Killing.Ground.(2016).WEBRip.1080p.AC3.x264-FGT

Post by bjorn j » Mon Jul 24, 2017 10:42 pm

Image

http://www.IMDb.com/title/tt4728386/
Genres: Horror, Thriller

A couples' camping trip turns into a frightening ordeal when they stumble across the scene of a horrific crime.

A couple’s romantic camping trip becomes a desperate fight for survival in this ultra-raw, unhinged kill ride. In need of a break from the pressures of their life in the city, Sam (Harriet Dyer) and Ian (Ian Meadows) head to a remote beach for a weekend getaway. When they come across an abandoned campsite, with no trace of its occupants, they’re concerned. When they discover a lone, traumatized child nearby, they’re scared. And when they encounter two local sociopaths (Aaron Glenane, Aaron Pederson), they’re in for a hell of a bad time. Weaving with unexpected twists and turns, Killing Ground delivers both nerve-shredding suspense and gut-punching realism.

Code: Select all

Video
ID                                       : 1
Format                                   : AVC
Format/Info                              : Advanced Video Codec
Format profile                           : High@L4.0
Format settings, CABAC                   : Yes
Format settings, ReFrames                : 5 frames
Codec ID                                 : V_MPEG4/ISO/AVC
Duration                                 : 1h 28mn
Bit rate                                 : 4 395 Kbps
Width                                    : 1 912 pixels
Height                                   : 792 pixels
Display aspect ratio                     : 2.40:1
Frame rate mode                          : Constant
Frame rate                               : 24.000 fps
Color space                              : YUV
Chroma subsampling                       : 4:2:0
Bit depth                                : 8 bits
Scan type                                : Progressive
Bits/(Pixel*Frame)                       : 0.121
Stream size                              : 2.72 GiB (90%)
Title                                    : Killing.Ground.2016.1080p.WEB-DL.DD5.1.H264-FGT
Language                                 : English
Default                                  : Yes
Forced                                   : No
Color primaries                          : BT.709
Transfer characteristics                 : BT.709
Matrix coefficients                      : BT.709
Color range                              : Limited

Audio
ID                                       : 2
Format                                   : AC-3
Format/Info                              : Audio Coding 3
Mode extension                           : CM (complete main)
Format settings, Endianness              : Big
Codec ID                                 : A_AC3
Duration                                 : 1h 28mn
Bit rate mode                            : Constant
Bit rate                                 : 384 Kbps
Channel(s)                               : 6 channels
Channel positions                        : Front: L C R, Side: L R, LFE
Sampling rate                            : 48.0 KHz
Bit depth                                : 16 bits
Compression mode                         : Lossy
Delay relative to video                  : -42ms
Stream size                              : 244 MiB (8%)
Title                                    : Killing.Ground.2016.1080p.WEB-DL.DD5.1.H264-FGT
Language                                 : English
Default                                  : Yes
Forced                                   : No

Text
ID                                       : 3
Format                                   : UTF-8
Codec ID                                 : S_TEXT/UTF8
Codec ID/Info                            : UTF-8 Plain Text
Language                                 : English
Default                                  : Yes
Forced                                   : No

Menu
00:00:00.000                             : en:Opening Sequence
00:06:45.000                             : en:Camping Ground
00:12:19.000                             : en:The Neighbours
00:17:38.000                             : en:You're In Luck
00:23:19.000                             : en:Just A Bad Dream
00:28:19.000                             : en:This Isn't Right
00:34:44.000                             : en:Dilemma
00:40:27.000                             : en:Where's Mom And Dad?
00:45:30.000                             : en:Protect The Little One
00:50:48.000                             : en:Execution
00:58:02.000                             : en:The Search For Ollie
01:03:38.000                             : en:The Hunt
01:08:12.000                             : en:The Bait
01:13:19.000                             : en:The Rescue
01:19:39.000                             : en:The Escape
01:25:17.000                             : en:End Credits
Image

Killing.Ground.2016.1080p.WEB-DL.DD5.1.H264-FGT.mkv  [3.02 Gb]

Locked

Return to “Non-Retail Archive”