First.Kill.(2017).HDRip.AC3.XviD-EVO

Any non-retail/cinema releases which are now available in the retail movie sections will be moved here.
Locked
bjorn j
Donator
Donator
Posts: 3313
Joined: Wed Jan 07, 2009 1:49 pm
Has thanked: 26 times
Been thanked: 5254 times

First.Kill.(2017).HDRip.AC3.XviD-EVO

Post by bjorn j » Fri Jul 21, 2017 3:52 pm

Image

http://www.IMDb.com/title/tt5884234/
Genres: Action, Thriller

In order to reconnect with his son Danny (Ty Shelton), big shot Wall Street broker Will (Hayden Christensen) takes his family on a hunting trip to the cabin where he grew up. While out hunting with Danny, the trip takes a deadly turn when they stumble upon several robbers and witness the murder of one of the criminals. After becoming entangled in a bank heist gone bad that results in the kidnapping of Danny, Will is forced to help the kidnappers evade the police chief (Bruce Willis) and recover the stolen loot in exchange for his son's life.

Code: Select all

Video
ID                                       : 0
Format                                   : MPEG-4 Visual
Format profile                           : Advanced Simple@L5
Format settings, BVOP                    : 2
Format settings, QPel                    : No
Format settings, GMC                     : No warppoints
Format settings, Matrix                  : Default (H.263)
Muxing mode                              : Packed bitstream
Codec ID                                 : XviD
Codec ID/Hint                            : XviD
Duration                                 : 1h 41mn
Bit rate                                 : 1 531 Kbps
Width                                    : 720 pixels
Height                                   : 304 pixels
Display aspect ratio                     : 2.35:1
Frame rate                               : 23.976 fps
Color space                              : YUV
Chroma subsampling                       : 4:2:0
Bit depth                                : 8 bits
Scan type                                : Progressive
Compression mode                         : Lossy
Bits/(Pixel*Frame)                       : 0.292
Stream size                              : 1.09 GiB (80%)
Writing library                          : XviD 66

Audio
ID                                       : 1
Format                                   : AC-3
Format/Info                              : Audio Coding 3
Mode extension                           : CM (complete main)
Format settings, Endianness              : Big
Codec ID                                 : 2000
Duration                                 : 1h 41mn
Bit rate mode                            : Constant
Bit rate                                 : 384 Kbps
Channel(s)                               : 6 channels
Channel positions                        : Front: L C R, Side: L R, LFE
Sampling rate                            : 48.0 KHz
Bit depth                                : 16 bits
Compression mode                         : Lossy
Stream size                              : 279 MiB (20%)
Alignment                                : Aligned on interleaves
Interleave, duration                     : 42 ms (1.00 video frame)
Interleave, preload duration             : 512 ms
Image
Image
Image

First.Kill.2017.HDRip.XviD.AC3-EVO.avi  [1.37 Gb]

Locked

Return to “Non-Retail Archive”