Security.(2017).WEBRip.AC3.XviD-FGT

Any non-retail/cinema releases which are now available in the retail movie sections will be moved here.
Locked
bjorn j
Donator
Donator
Posts: 3330
Joined: Wed Jan 07, 2009 1:49 pm
Has thanked: 26 times
Been thanked: 5346 times

Security.(2017).WEBRip.AC3.XviD-FGT

Post by bjorn j » Mon Jul 03, 2017 12:44 pm

Image

http://www.IMDb.com/title/tt3501112/
Genre: Action

A security guard protects a woman who is being targeted by a gang for participating as a trial witness.

An ex-special services veteran (Antonio Banderas), down on his luck and desperate for work, takes a job as a security guard at a run-down mall in a rough area of town. On his first night on the job, he opens the doors up to a distraught and desperate young girl who has escaped and fled from a hijacking of the Police motorcade that was transporting her to testify as a trial witness in a briefcase. Hot on her heels is psychopathic hijacker (Ben Kingsley), alongside his resourceful henchmen, who will stop at nothing to extract and eliminate their witness.

Code: Select all

General
Format                                   : AVI
File size                                : 1.14 GiB
Duration                                 : 1h 31mn
Overall bit rate                         : 1 787 Kbps

Video
ID                                       : 0
Format                                   : MPEG-4 Visual
Format profile                           : Simple@L5
Format settings, BVOP                    : No
Format settings, QPel                    : No
Format settings, GMC                     : No warppoints
Format settings, Matrix                  : Default (H.263)
Codec ID                                 : XviD
Codec ID/Hint                            : XviD
Duration                                 : 1h 31mn
Bit rate                                 : 1 394 Kbps
Width                                    : 720 pixels
Height                                   : 304 pixels
Display aspect ratio                     : 2.40:1
Frame rate                               : 23.976 fps
Color space                              : YUV
Chroma subsampling                       : 4:2:0
Bit depth                                : 8 bits
Scan type                                : Progressive
Compression mode                         : Lossy
Bits/(Pixel*Frame)                       : 0.266
Stream size                              : 914 MiB (78%)
Writing library                          : Lavc57.16.101

Audio
ID                                       : 1
Format                                   : AC-3
Format/Info                              : Audio Coding 3
Mode extension                           : CM (complete main)
Format settings, Endianness              : Big
Codec ID                                 : 2000
Duration                                 : 1h 31mn
Bit rate mode                            : Constant
Bit rate                                 : 384 Kbps
Channel(s)                               : 6 channels
Channel positions                        : Front: L C R, Side: L R, LFE
Sampling rate                            : 48.0 KHz
Bit depth                                : 16 bits
Compression mode                         : Lossy
Stream size                              : 252 MiB (21%)
Alignment                                : Aligned on interleaves
Interleave, duration                     : 42 ms (1.00 video frame)
Interleave, preload duration             : 512 ms
Image
Image
Image
Image

Security.2017.WEB-DL.XviD.AC3-FGT.avi  [1.14 Gb]

Locked

Return to “Non-Retail Archive”