Inconceivable.(2017).WEBRip.1080p.AC3.x264-FGT

Any non-retail/cinema releases which are now available in the retail movie sections will be moved here.
Locked
bjorn j
Donator
Donator
Posts: 3330
Joined: Wed Jan 07, 2009 1:49 pm
Has thanked: 26 times
Been thanked: 5355 times

Inconceivable.(2017).WEBRip.1080p.AC3.x264-FGT

Post by bjorn j » Fri Jun 30, 2017 6:43 pm

Image

http://www.IMDb.com/title/tt3481634/
Genres: Drama, Thriller

A mother looks to escape her abusive past by moving to a new town where she befriends another mother, who grows suspicious of her.

A mysterious young woman, Katie (Nicky Whelan), and her daughter move to a new town to escape her past and quickly befriends Angela Morgan (Gina Gershon), a mother of one who longs for a bigger family. As their lives become intricately entwined, Angela and her husband, Brian, (Nicolas Cage), invite Katie to live in their guest-house to serve as their nanny. Over time, the blossoming friendship between the two women spirals into a dangerous obsession as Katie becomes overly attached to the Morgans' daughter. Enduring lies and manipulations, Angela and Brian realize that sweet Katie is actually trying to destroy their family from within.

Code: Select all

                    
Format                                   : Matroska
File size                                : 3.67 GiB
Duration                                 : 1h 46mn
Overall bit rate                         : 4 950 Kbps

Video
ID                                       : 1
Format                                   : AVC
Format/Info                              : Advanced Video Codec
Format profile                           : High@L4.0
Format settings, CABAC                   : Yes
Format settings, ReFrames                : 5 frames
Codec ID                                 : V_MPEG4/ISO/AVC
Duration                                 : 1h 46mn
Bit rate                                 : 4 468 Kbps
Width                                    : 1 912 pixels
Height                                   : 796 pixels
Display aspect ratio                     : 2.40:1
Frame rate mode                          : Constant
Frame rate                               : 23.976 fps
Color space                              : YUV
Chroma subsampling                       : 4:2:0
Bit depth                                : 8 bits
Scan type                                : Progressive
Bits/(Pixel*Frame)                       : 0.122
Stream size                              : 3.31 GiB (90%)
Title                                    : Inconceivable.2017.1080p.WEB-DL.DD5.1.H264-FGT
Language                                 : English
Default                                  : Yes
Forced                                   : No
Color primaries                          : BT.709
Transfer characteristics                 : BT.709
Matrix coefficients                      : BT.709
Color range                              : Limited

Audio
ID                                       : 2
Format                                   : AC-3
Format/Info                              : Audio Coding 3
Mode extension                           : CM (complete main)
Format settings, Endianness              : Big
Codec ID                                 : A_AC3
Duration                                 : 1h 46mn
Bit rate mode                            : Constant
Bit rate                                 : 384 Kbps
Channel(s)                               : 6 channels
Channel positions                        : Front: L C R, Side: L R, LFE
Sampling rate                            : 48.0 KHz
Bit depth                                : 16 bits
Compression mode                         : Lossy
Delay relative to video                  : -42ms
Stream size                              : 292 MiB (8%)
Title                                    : Inconceivable.2017.1080p.WEB-DL.DD5.1.H264-FGT
Language                                 : English
Default                                  : Yes
Forced                                   : No

Text
ID                                       : 3
Format                                   : UTF-8
Codec ID                                 : S_TEXT/UTF8
Codec ID/Info                            : UTF-8 Plain Text
Language                                 : English
Default                                  : Yes
Forced                                   : No

Menu
00:00:00.000                             : en:1
00:04:01.000                             : en:2
00:14:33.000                             : en:3
00:26:17.000                             : en:4
00:34:23.000                             : en:5
00:45:05.000                             : en:6
00:53:37.000                             : en:7
01:04:15.000                             : en:8
01:15:40.000                             : en:9
01:30:26.000                             : en:10
01:39:21.000                             : en:11
Image

Inconceivable.2017.1080p.WEB-DL.DD5.1.H264-FGT.mkv  [3.67 Gb]

Locked

Return to “Non-Retail Archive”