Colossal.(2016).WEBRip.x264-FGT

Any non-retail/cinema releases which are now available in the retail movie sections will be moved here.
Locked
bjorn j
Donator
Donator
Posts: 3313
Joined: Wed Jan 07, 2009 1:49 pm
Has thanked: 26 times
Been thanked: 5254 times

Colossal.(2016).WEBRip.x264-FGT

Post by bjorn j » Fri May 26, 2017 11:54 pm

Image

http://www.IMDb.com/title/tt4680182/
Genres: Action, Comedy, Drama

Gloria is an out-of-work party girl forced to leave her life in New York City, and move back home. When reports surface that a giant creature is destroying Seoul, she gradually comes to the realization that she is somehow connected to this phenomenon.

Code: Select all

General
Complete name                            :Colossal.2016.WEB-DL.x264-FGT.mp4
Format                                   : MPEG-4
Format profile                           : Base Media
Codec ID                                 : isom
File size                                : 916 MiB
Duration                                 : 1h 44mn
Overall bit rate                         : 1 223 Kbps
Movie name                               : Colossal.2016.WEB-DL.x264-FGT
Writing application                      : Lavf57.19.100
Comment                                  : Colossal.2016.WEB-DL.x264-FGT

Video
ID                                       : 1
Format                                   : AVC
Format/Info                              : Advanced Video Codec
Format profile                           : High@L3.1
Format settings, CABAC                   : Yes
Format settings, ReFrames                : 5 frames
Codec ID                                 : avc1
Codec ID/Info                            : Advanced Video Coding
Duration                                 : 1h 44mn
Bit rate                                 : 1 100 Kbps
Width                                    : 720 pixels
Height                                   : 304 pixels
Display aspect ratio                     : 2.40:1
Original display aspect ratio            : 2.40:1
Frame rate mode                          : Constant
Frame rate                               : 25.000 fps
Color space                              : YUV
Chroma subsampling                       : 4:2:0
Bit depth                                : 8 bits
Scan type                                : Progressive
Bits/(Pixel*Frame)                       : 0.201
Stream size                              : 816 MiB (89%)
Title                                    : Colossal.2016.WEB-DL.x264-FGT

Audio
ID                                       : 2
Format                                   : AAC
Format/Info                              : Advanced Audio Codec
Format profile                           : LC
Codec ID                                 : 40
Duration                                 : 1h 44mn
Duration_LastFrame                       : 32ms
Bit rate mode                            : Constant
Bit rate                                 : 128 Kbps
Channel(s)                               : 2 channels
Channel positions                        : Front: L R
Sampling rate                            : 48.0 KHz
Compression mode                         : Lossy
Stream size                              : 95.9 MiB (10%)
Title                                    : Colossal.2016.WEB-DL.x264-FGT
Language                                 : English
Image
Image
Image
Image

Colossal.2016.WEB-DL.x264-FGT.mp4  [916.33 Mb]

Locked

Return to “Non-Retail Archive”