Redivider.(2017).WEBRip.x264-FGT

Any non-retail/cinema releases which are now available in the retail movie sections will be moved here.
Locked
bjorn j
Donator
Donator
Posts: 3330
Joined: Wed Jan 07, 2009 1:49 pm
Has thanked: 26 times
Been thanked: 5346 times

Redivider.(2017).WEBRip.x264-FGT

Post by bjorn j » Fri May 19, 2017 9:42 pm

Image

http://www.IMDb.com/title/tt5464234/
Genre: Sci-Fi

A pilot battles to save his family and the planet after an experiment for unlimited energy goes wrong.

Code: Select all

Video
ID                                       : 1
Format                                   : AVC
Format/Info                              : Advanced Video Codec
Format profile                           : High@L3.1
Format settings, CABAC                   : Yes
Format settings, ReFrames                : 5 frames
Codec ID                                 : avc1
Codec ID/Info                            : Advanced Video Coding
Duration                                 : 1h 31mn
Bit rate                                 : 1 100 Kbps
Width                                    : 720 pixels
Height                                   : 304 pixels
Display aspect ratio                     : 2.40:1
Frame rate mode                          : Constant
Frame rate                               : 23.976 (24000/1001) fps
Color space                              : YUV
Chroma subsampling                       : 4:2:0
Bit depth                                : 8 bits
Scan type                                : Progressive
Bits/(Pixel*Frame)                       : 0.210
Stream size                              : 703 MiB (89%)
Title                                    : Kill.Switch.2017.WEB-DL.x264-FGT

Audio
ID                                       : 2
Format                                   : AAC
Format/Info                              : Advanced Audio Codec
Format profile                           : LC
Codec ID                                 : 40
Duration                                 : 1h 31mn
Duration_LastFrame                       : 32ms
Bit rate mode                            : Constant
Bit rate                                 : 128 Kbps
Channel(s)                               : 2 channels
Channel positions                        : Front: L R
Sampling rate                            : 48.0 KHz
Frame rate                               : 46.875 fps (1024 spf)
Compression mode                         : Lossy
Stream size                              : 83.6 MiB (11%)
Title                                    : Kill.Switch.2017.WEB-DL.x264-FGT
Language                                 : English
Default                                  : Yes
Image
Image
Image
Image

Redivider.2017.WEB-DL.x264-FGT.mp4  [790.58 Mb]

Locked

Return to “Non-Retail Archive”