XX.(2017).WEBRip.1080p.AC3.x264-FGT

Any non-retail/cinema releases which are now available in the retail movie sections will be moved here.
Locked
bjorn j
Donator
Donator
Posts: 2968
Joined: Wed Jan 07, 2009 1:49 pm
Has thanked: 24 times
Been thanked: 5804 times

XX.(2017).WEBRip.1080p.AC3.x264-FGT

Post by bjorn j » Sat Feb 18, 2017 11:23 am

Image

http://www.IMDb.com/title/tt3322892/
Genre: Horror

Four short horror films that are directed and written by women.

XX is a new horror anthology with a gender twist - all segments will be helmed by female directors and will star female leads. The directors have been given free creative rein within budget and time constraints, but all of the segments themselves will involve the horror genre.

Code: Select all

Video
ID                                       : 1
Format                                   : AVC
Format/Info                              : Advanced Video Codec
Format profile                           : High@L4
Format settings, CABAC                   : Yes
Format settings, ReFrames                : 5 frames
Codec ID                                 : V_MPEG4/ISO/AVC
Duration                                 : 1h 20mn
Bit rate                                 : 4 510 Kbps
Width                                    : 1 920 pixels
Height                                   : 796 pixels
Display aspect ratio                     : 2.40:1
Frame rate mode                          : Constant
Frame rate                               : 23.976 fps
Color space                              : YUV
Chroma subsampling                       : 4:2:0
Bit depth                                : 8 bits
Scan type                                : Progressive
Bits/(Pixel*Frame)                       : 0.123
Stream size                              : 2.54 GiB (90%)
Title                                    : XX.2017.1080p.WEB-DL.DD5.1.H264-FGT
Language                                 : English
Default                                  : Yes
Forced                                   : No
Color range                              : Limited
Color primaries                          : BT.709
Transfer characteristics                 : BT.709
Matrix coefficients                      : BT.709

Audio
ID                                       : 2
Format                                   : AC-3
Format/Info                              : Audio Coding 3
Mode extension                           : CM (complete main)
Format settings, Endianness              : Big
Codec ID                                 : A_AC3
Duration                                 : 1h 20mn
Bit rate mode                            : Constant
Bit rate                                 : 384 Kbps
Channel(s)                               : 6 channels
Channel positions                        : Front: L C R, Side: L R, LFE
Sampling rate                            : 48.0 KHz
Frame rate                               : 31.250 fps (1536 spf)
Compression mode                         : Lossy
Stream size                              : 222 MiB (8%)
Title                                    : XX.2017.1080p.WEB-DL.DD5.1.H264-FGT
Language                                 : English
Default                                  : Yes
Forced                                   : No

Text
ID                                       : 3
Format                                   : UTF-8
Codec ID                                 : S_TEXT/UTF8
Codec ID/Info                            : UTF-8 Plain Text
Language                                 : English
Default                                  : Yes
Forced                                   : No

Menu
00:00:00.000                             : en:1
00:04:32.856                             : en:2
00:11:11.588                             : en:3
00:15:29.596                             : en:4
00:19:11.693                             : en:5
00:22:36.314                             : en:6
00:30:11.227                             : en:7
00:34:58.722                             : en:8
00:38:44.322                             : en:9
00:45:25.348                             : en:10
00:48:37.415                             : en:11
00:51:53.527                             : en:12
00:55:29.534                             : en:13
01:01:00.823                             : en:14
01:05:34.471                             : en:15
01:10:37.607                             : en:16
ImageImage

XX.2017.1080p.WEB-DL.DD5.1.H264-FGT.mkv  [2.82 Gb]

Locked

Return to “Non-Retail Archive”