The.LEGO.Batman.Movie.(2017).HDCAM.720p.AC3.x264.HQ.Hive-CM8

Any non-retail/cinema releases which are now available in the retail movie sections will be moved here.
Locked
bjorn j
Donator
Donator
Posts: 3330
Joined: Wed Jan 07, 2009 1:49 pm
Has thanked: 26 times
Been thanked: 5347 times

The.LEGO.Batman.Movie.(2017).HDCAM.720p.AC3.x264.HQ.Hive-CM8

Post by bjorn j » Sat Feb 18, 2017 11:16 am

Image

http://www.IMDb.com/title/tt4116284/
Genres: Animation, Action, Adventure

Bruce Wayne must not only deal with the criminals of Gotham City, but also the responsibility of raising a boy he adopted.

There are big changes brewing in Gotham City, and if he wants to save the city from The Joker's hostile takeover, Batman may have to drop the lone vigilante thing, try to work with others and maybe, just maybe, learn to lighten up.

Code: Select all

The.LEGO.Batman.Movie.2017.720p.HDCAM.HQMIC.x264.AC3.HQ.Hive-CM8
Sources:
Video: 1080p Latino
Audio: HQ Mic Matine
thx m8s

Encode:
Video quality was so damn great,theire was no need to touch it at all, avi wont do justice so done
720p >>
mkv right away.
Audio was good too, wasnt easy to sync-took good 10h, but result is perfect and will do me till retail.
enjoy

Video: 1280x720 @bitrate 4000-8000
Audio: English HQ Mic
Samples: yes included

PS: looking for line audio guys!!

http://www.IMDb.com/title/tt4116284/

General
Complete name                  : The.LEGO.Batman.Movie.2017.720p.HDCAM.HQMIC.x264.AC3.HQ.Hive-CM8
Format                         : Matroska
Format version                 : Version 2
File size                      : 2.87 GiB
Duration                       : 1h 36mn
Overall bit rate mode          : Variable
Overall bit rate               : 4 257 Kbps
Encoded date                   : UTC 2017-02-17 18:36:33
Writing application            : mkvmerge v5.6.0 ('Kenya Kane') built on May 27 2012 16:44:04
Writing library                : libebml v1.2.3 + libmatroska v1.3.0

Video
ID                             : 1
Format                         : AVC
Format/Info                    : Advanced Video Codec
Format profile                 : High@L5.1
Format settings, CABAC         : Yes
Format settings, ReFrames      : 5 frames
Muxing mode                    : Header stripping
Codec ID                       : V_MPEG4/ISO/AVC
Duration                       : 1h 36mn
Bit rate mode                  : Variable
Bit rate                       : 3 916 Kbps
Maximum bit rate               : 8 000 Kbps
Width                          : 1 280 pixels
Height                         : 720 pixels
Display aspect ratio           : 16:9
Frame rate mode                : Constant
Frame rate                     : 29.970 fps
Standard                       : NTSC
Color space                    : YUV
Chroma subsampling             : 4:2:0
Bit depth                      : 8 bits
Scan type                      : Progressive
Bits/(Pixel*Frame)             : 0.142
Stream size                    : 2.64 GiB (92%)
Language                       : English
Default                        : Yes
Forced                         : No
Color primaries                : BT.709
Transfer characteristics       : BT.709
Matrix coefficients            : BT.709
Color range                    : Limited

Audio
ID                             : 2
Format                         : AC-3
Format/Info                    : Audio Coding 3
Mode extension                 : CM (complete main)
Format settings, Endianness    : Big
Muxing mode                    : Header stripping
Codec ID                       : A_AC3
Duration                       : 1h 36mn
Bit rate mode                  : Constant
Bit rate                       : 256 Kbps
Channel(s)                     : 2 channels
Channel positions              : Front: L R
Sampling rate                  : 48.0 KHz
Bit depth                      : 16 bits
Compression mode               : Lossy
Stream size                    : 177 MiB (6%)
Language                       : English
Default                        : Yes
Forced                         : Yes
ImageImage

The.LEGO.Batman.Movie.2017.720p.HDCAM.x264.AC3.HQ.Hive-CM8.mkv  [2.87 Gb]

Locked

Return to “Non-Retail Archive”