My.Pet.Dinosaur.(2017).HDRip.AC3.XviD-EVO

Any non-retail/cinema releases which are now available in the retail movie sections will be moved here.
Locked
bjorn j
Donator
Donator
Posts: 3315
Joined: Wed Jan 07, 2009 1:49 pm
Has thanked: 26 times
Been thanked: 5262 times

My.Pet.Dinosaur.(2017).HDRip.AC3.XviD-EVO

Post by bjorn j » Thu Sep 07, 2017 9:57 pm

Image

http://www.IMDb.com/title/tt6055082/
Genres: Action, Adventure, Family

A troubled town is plunged into chaos when a boy accidentally makes a new friend.

When a young boy named Jake accidentally makes a new friend in an experiment gone wrong a troubled town is plunged into chaos. But with the creature rapidly evolving every day, Jake finds it increasingly difficult to keep his new pet secret. Jake's friends and new girl Abbie realize they are not the only ones interested in this strange, mischievous little dinosaur and soon discover that the only thing more mysterious than what it is, is who is looking for it.

Code: Select all

Video
ID                                       : 0
Format                                   : MPEG-4 Visual
Format profile                           : Advanced Simple@L5
Format settings, BVOP                    : 2
Format settings, QPel                    : No
Format settings, GMC                     : No warppoints
Format settings, Matrix                  : Default (H.263)
Muxing mode                              : Packed bitstream
Codec ID                                 : XviD
Codec ID/Hint                            : XviD
Duration                                 : 1h 36mn
Bit rate                                 : 1 665 Kbps
Width                                    : 720 pixels
Height                                   : 304 pixels
Display aspect ratio                     : 2.35:1
Frame rate                               : 24.000 fps
Color space                              : YUV
Chroma subsampling                       : 4:2:0
Bit depth                                : 8 bits
Scan type                                : Progressive
Compression mode                         : Lossy
Bits/(Pixel*Frame)                       : 0.317
Stream size                              : 1.13 GiB (81%)
Writing library                          : XviD 66

Audio
ID                                       : 1
Format                                   : AC-3
Format/Info                              : Audio Coding 3
Mode extension                           : CM (complete main)
Format settings, Endianness              : Big
Codec ID                                 : 2000
Duration                                 : 1h 36mn
Bit rate mode                            : Constant
Bit rate                                 : 384 Kbps
Channel(s)                               : 6 channels
Channel positions                        : Front: L C R, Side: L R, LFE
Sampling rate                            : 48.0 KHz
Bit depth                                : 16 bits
Compression mode                         : Lossy
Stream size                              : 266 MiB (19%)
Alignment                                : Aligned on interleaves
Interleave, duration                     : 42 ms (1.00 video frame)
Interleave, preload duration             : 512 ms
Image
Image
Image
Image

My.Pet.Dinosaur.2017.HDRip.XviD.AC3-EVO.avi  [1.39 Gb]

Locked

Return to “Non-Retail Archive”