Pirates.Of.The.Caribbean.Dead.Men.Tell.No.Tales.(aka.Salazar's.Revenge).(2017).WEBRip.AC3.XviD-FGT

Any non-retail/cinema releases which are now available in the retail movie sections will be moved here.
Locked
bjorn j
Donator
Donator
Posts: 3146
Joined: Wed Jan 07, 2009 1:49 pm
Has thanked: 24 times
Been thanked: 3933 times

Pirates.Of.The.Caribbean.Dead.Men.Tell.No.Tales.(aka.Salazar's.Revenge).(2017).WEBRip.AC3.XviD-FGT

Post by bjorn j » Tue Sep 05, 2017 10:56 pm

Image

http://www.IMDb.com/title/tt1790809/
Genres: Action, Adventure, Fantasy

Captain Jack Sparrow searches for the trident of Poseidon while being pursued by an undead sea captain and his crew.

The infamous Captain Jack Sparrow is no stranger to trouble, and that trend continues while he searches for an ancient and powerful artifact, the Trident of Poseidon. Predictably, Captain Jack finds himself in yet another precarious position in his search for the Trident. A pirate crew of old rivals, the cursed Capitan Salazar and his fellow ghost pirates seek to escape from their prison in the depths of the Devil's Triangle and find the Trident of Poseidon for themselves. With it, they plan to wrest control of the seven seas and finally exact their plot of revenge against Captain Jack.

Code: Select all

Format                                   : AVI
File size                                : 1.79 GiB
Duration                                 : 2h 9mn
Overall bit rate                         : 1 983 Kbps

Video
ID                                       : 0
Format                                   : MPEG-4 Visual
Format profile                           : Simple@L5
Format settings, BVOP                    : No
Format settings, QPel                    : No
Format settings, GMC                     : No warppoints
Format settings, Matrix                  : Default (H.263)
Codec ID                                 : XviD
Codec ID/Hint                            : XviD
Duration                                 : 2h 9mn
Bit rate                                 : 1 590 Kbps
Width                                    : 720 pixels
Height                                   : 304 pixels
Display aspect ratio                     : 2.40:1
Frame rate                               : 23.976 fps
Color space                              : YUV
Chroma subsampling                       : 4:2:0
Bit depth                                : 8 bits
Scan type                                : Progressive
Compression mode                         : Lossy
Bits/(Pixel*Frame)                       : 0.303
Stream size                              : 1.43 GiB (80%)
Writing library                          : Lavc57.100.103

Audio
ID                                       : 1
Format                                   : AC-3
Format/Info                              : Audio Coding 3
Mode extension                           : CM (complete main)
Format settings, Endianness              : Big
Codec ID                                 : 2000
Duration                                 : 2h 9mn
Bit rate mode                            : Constant
Bit rate                                 : 384 Kbps
Channel(s)                               : 6 channels
Channel positions                        : Front: L C R, Side: L R, LFE
Sampling rate                            : 48.0 KHz
Bit depth                                : 16 bits
Compression mode                         : Lossy
Stream size                              : 355 MiB (19%)
Alignment                                : Aligned on interleaves
Interleave, duration                     : 42 ms (1.00 video frame)
Interleave, preload duration             : 512 ms
Image
Image
Image
Image

Pirates.Of.The.Caribbean.Dead.Men.Tell.No.Tales.2017.WEB-DL.XviD.AC3-FGT.avi  [1.79 Gb]

Locked

Return to “Non-Retail Archive”