The.Fate.Of.The.Furious.(aka.Fast.And.The.Furious.8).(2017).HDRip.XviD-STUTTERSHIT

Any non-retail/cinema releases which are now available in the retail movie sections will be moved here.
Locked
bjorn j
Donator
Donator
Posts: 3151
Joined: Wed Jan 07, 2009 1:49 pm
Has thanked: 24 times
Been thanked: 3948 times

The.Fate.Of.The.Furious.(aka.Fast.And.The.Furious.8).(2017).HDRip.XviD-STUTTERSHIT

Post by bjorn j » Wed May 17, 2017 4:04 pm

Image

http://www.IMDb.com/title/tt4630562/
Genres: Action, Adventure, Crime

When a mysterious woman seduces Dom into the world of terrorism and a betrayal of those closest to him, the crew face trials that will test them as never before.

Code: Select all

Format                                   : AVI
Format/Info                              : Audio Video Interleave
File size                                : 1.71 GiB
Duration                                 : 2h 15mn
Overall bit rate                         : 1 806 Kbps
Movie name                               : The.Fate.of.the.Furious.2017.KORSUB.HDRip.XviD.MP3-STUTTERSHIT
Writing library                          : VirtualDub build 35491/release
Comment                                  : The.Fate.of.the.Furious.2017.KORSUB.HDRip.XviD.MP3-STUTTERSHIT

Video
ID                                       : 0
Format                                   : MPEG-4 Visual
Format profile                           : Simple@L5
Format settings, BVOP                    : No
Format settings, QPel                    : No
Format settings, GMC                     : No warppoints
Format settings, Matrix                  : Default (H.263)
Codec ID                                 : XviD
Codec ID/Hint                            : XviD
Duration                                 : 2h 15mn
Bit rate                                 : 1 600 Kbps
Width                                    : 720 pixels
Height                                   : 304 pixels
Display aspect ratio                     : 2.40:1
Frame rate                               : 30.303 fps
Color space                              : YUV
Chroma subsampling                       : 4:2:0
Bit depth                                : 8 bits
Scan type                                : Progressive
Compression mode                         : Lossy
Bits/(Pixel*Frame)                       : 0.241
Stream size                              : 1.52 GiB (89%)
Writing library                          : Lavc57.16.101

Audio
ID                                       : 1
Format                                   : MPEG Audio
Format version                           : Version 1
Format profile                           : Layer 3
Mode                                     : Joint stereo
Mode extension                           : MS Stereo
Codec ID                                 : 55
Codec ID/Hint                            : MP3
Duration                                 : 2h 15mn
Bit rate mode                            : Constant
Bit rate                                 : 192 Kbps
Channel(s)                               : 2 channels
Sampling rate                            : 48.0 KHz
Compression mode                         : Lossy
Stream size                              : 187 MiB (11%)
Alignment                                : Aligned on interleaves
Interleave, duration                     : 24 ms (0.73 video frame)
Interleave, preload duration             : 504 ms
Writing library                          : LAME
Image
Image
Image
Image

Hardcoded Korean subs

The.Fate.Of.The.Furious.2017.HDRip.XviD-STUTTERSHIT.avi  [1.71 Gb]

Locked

Return to “Non-Retail Archive”