The.Ticket.(2016).WEBRip.AC3.XviD-FGT

Any non-retail/cinema releases which are now available in the retail movie sections will be moved here.
Locked
bjorn j
Donator
Donator
Posts: 3189
Joined: Wed Jan 07, 2009 1:49 pm
Has thanked: 24 times
Been thanked: 4280 times

The.Ticket.(2016).WEBRip.AC3.XviD-FGT

Post by bjorn j » Mon Apr 10, 2017 5:50 pm

Image

http://www.IMDb.com/title/tt3893280/
Genre: Drama

A blind man who regains his vision finds himself becoming metaphorically blinded by his obsession for the superficial.

Code: Select all

General
Complete name                            : The.Ticket.2016.WEB-DL.XviD.AC3-FGT.avi
Format                                   : AVI
Format/Info                              : Audio Video Interleave
File size                                : 1.14 GiB
Duration                                 : 1h 39mn
Overall bit rate                         : 1 642 Kbps
Movie name                               : The.Ticket.2016.WEB-DL.XviD.AC3-FGT
Writing library                          : VirtualDub build 35491/release
Comment                                  : The.Ticket.2016.WEB-DL.XviD.AC3-FGT

Video
ID                                       : 0
Format                                   : MPEG-4 Visual
Format profile                           : Simple@L5
Format settings, BVOP                    : No
Format settings, QPel                    : No
Format settings, GMC                     : No warppoints
Format settings, Matrix                  : Default (H.263)
Codec ID                                 : XviD
Codec ID/Hint                            : XviD
Duration                                 : 1h 39mn
Bit rate                                 : 1 249 Kbps
Width                                    : 720 pixels
Height                                   : 304 pixels
Display aspect ratio                     : 2.40:1
Frame rate                               : 23.976 fps
Color space                              : YUV
Chroma subsampling                       : 4:2:0
Bit depth                                : 8 bits
Scan type                                : Progressive
Compression mode                         : Lossy
Bits/(Pixel*Frame)                       : 0.238
Stream size                              : 887 MiB (76%)
Writing library                          : Lavc57.16.101

Audio
ID                                       : 1
Format                                   : AC-3
Format/Info                              : Audio Coding 3
Mode extension                           : CM (complete main)
Format settings, Endianness              : Big
Codec ID                                 : 2000
Duration                                 : 1h 39mn
Bit rate mode                            : Constant
Bit rate                                 : 384 Kbps
Channel(s)                               : 6 channels
Channel positions                        : Front: L C R, Side: L R, LFE
Sampling rate                            : 48.0 KHz
Bit depth                                : 16 bits
Compression mode                         : Lossy
Stream size                              : 273 MiB (23%)
Alignment                                : Aligned on interleaves
Interleave, duration                     : 42 ms (1.00 video frame)
Interleave, preload duration             : 512 ms
Image
Image
Image
Image

The.Ticket.2016.WEB-DL.XviD.AC3-FGT.avi  [1.14 Gb]

Locked

Return to “Non-Retail Archive”