Fantastic.Beasts.And.Where.To.Find.Them.(2016).HDRip.x264-STUTTERSHIT

Any non-retail/cinema releases which are now available in the retail movie sections will be moved here.
Locked
bjorn j
Donator
Donator
Posts: 3409
Joined: Wed Jan 07, 2009 1:49 pm
Has thanked: 11 times
Been thanked: 1647 times

Fantastic.Beasts.And.Where.To.Find.Them.(2016).HDRip.x264-STUTTERSHIT

Post by bjorn j » Sun Jan 15, 2017 6:34 pm

Image

http://www.IMDb.com/title/tt3183660/
Genres: Adventure, Family, Fantasy

The adventures of writer Newt Scamander in New York's secret community of witches and wizards seventy years before Harry Potter reads his book in school.

Code: Select all

General
Complete name                            : Fantastic.Beasts.And.Where.To.Find.Them.2016.HDRip.x264-STUTTERSHIT.mp4
Format                                   : MPEG-4
Format profile                           : Base Media
Codec ID                                 : isom
File size                                : 1.15 GiB
Duration                                 : 2h 12mn
Overall bit rate mode                    : Variable
Overall bit rate                         : 1 243 Kbps
Movie name                               : Fantastic.Beasts.and.Where.to.Find.Them.2016.KORSUB.HDRip.x264-STUTTERSHIT
Writing application                      : Lavf57.19.100
Comment                                  : Fantastic.Beasts.and.Where.to.Find.Them.2016.KORSUB.HDRip.x264-STUTTERSHIT

Video
ID                                       : 1
Format                                   : AVC
Format/Info                              : Advanced Video Codec
Format profile                           : High@L3.1
Format settings, CABAC                   : Yes
Format settings, ReFrames                : 5 frames
Codec ID                                 : avc1
Codec ID/Info                            : Advanced Video Coding
Duration                                 : 2h 12mn
Bit rate                                 : 1 100 Kbps
Width                                    : 720 pixels
Height                                   : 304 pixels
Display aspect ratio                     : 2.40:1
Original display aspect ratio            : 2.40:1
Frame rate mode                          : Constant
Frame rate                               : 29.970 fps
Color space                              : YUV
Chroma subsampling                       : 4:2:0
Bit depth                                : 8 bits
Scan type                                : Progressive
Bits/(Pixel*Frame)                       : 0.168
Stream size                              : 1.03 GiB (89%)
Title                                    : Fantastic.Beasts.and.Where.to.Find.Them.2016.KORSUB.HDRip.x264-STUTTERSHIT
Writing library                          : x264 core 148 r2601 a0cd7d3
Encoding settings                        : cabac=1 / ref=5 / deblock=1:-2:-2 / analyse=0x3:0x113 / me=umh / subme=8 / psy=1 / psy_rd=0.90:0.00 / mixed_ref=1 / me_range=16 / chroma_me=1 / trellis=1 / 8x8dct=1 / cqm=0 / deadzone=21,11 / fast_pskip=1 / chroma_qp_offset=-2 / threads=24 / lookahead_threads=2 / sliced_threads=0 / nr=0 / decimate=1 / interlaced=0 / bluray_compat=0 / constrained_intra=0 / bframes=3 / b_pyramid=2 / b_adapt=2 / b_bias=0 / direct=3 / weightb=1 / open_gop=0 / weightp=2 / keyint=250 / keyint_min=25 / scenecut=40 / intra_refresh=0 / rc_lookahead=50 / rc=abr / mbtree=1 / bitrate=1100 / ratetol=1.0 / qcomp=0.60 / qpmin=0 / qpmax=69 / qpstep=4 / vbv_maxrate=31250 / vbv_bufsize=31250 / nal_hrd=none / filler=0 / ip_ratio=1.40 / aq=1:1.00

Audio
ID                                       : 2
Format                                   : AAC
Format/Info                              : Advanced Audio Codec
Format profile                           : LC
Codec ID                                 : 40
Duration                                 : 2h 12mn
Bit rate mode                            : Variable
Bit rate                                 : 128 Kbps
Maximum bit rate                         : 31.3 Mbps
Channel(s)                               : 2 channels
Channel positions                        : Front: L R
Sampling rate                            : 44.1 KHz
Compression mode                         : Lossy
Stream size                              : 122 MiB (10%)
Title                                    : Fantastic.Beasts.and.Where.to.Find.Them.2016.KORSUB.HDRip.x264-STUTTERSHIT
Image
Image
Image
Image

Hardcoded Korean subs

Fantastic.Beasts.And.Where.To.Find.Them.2016.HDRip.x264-STUTTERSHIT.mp4  [1.15 Gb]

marydp
Registered user
Registered user
Posts: 40
Joined: Wed Aug 08, 2012 11:21 am
Has thanked: 120 times

Re: Fantastic.Beasts.And.Where.To.Find.Them.(2016).HDRip.x264-STUTTERSHIT

Post by marydp » Mon Mar 06, 2017 10:47 am

The last 10 minutes is missing from this.

Locked

Return to “Non-Retail Archive”

Who is online

Users browsing this forum: No registered users and 1 guest