Continuum (Webseries) - S1,2

TV Series currently airing or planned to return for another season.
Post Reply
User avatar
aas82
Donator
Donator
Posts: 1715
Joined: Mon Jun 20, 2005 8:49 am
Been thanked: 9 times

Continuum (Webseries) - S1,2

Post by aas82 » Wed Sep 05, 2012 11:02 pm

Continuum (Webseries)
(Note: Not related to Canadian TV-series Continuum)

Image

Official Site - TV.com - IMDb



Season 1 (WEBRip)
All nine episodes played back-to-back (over 40 mins.) with no ending credits in between and all of the elements (video, sound design & music) re-edited to play continuously.
Continuum.Webseries.S01E01-E09.WEBRip.x264-aas82.mp4  [440.69 Mb]
-thanks: aas82 [1].


Season 1 (720p WEBRip)
Filesize............: ~40 to 60 MB (each episode) / Total: 454 MB
Runtime...........: ~4 to 6 min (each episode)
Video Format....: AVC High@L3.1 CABAC=Yes RefFrames=1
Video Bitrate....: ~1500 kbps
Resolution........: 1280 x 720
Aspect Ratio.....: 16:9
Frame rate.......: 23.976
Audio Codec.....: AAC 2 ch 44.0 KHz Lossy

Continuum.Webseries.S01E01.Supernovacaine.720p.WEBRip.x264.mp4  [58.00 Mb]
Continuum.Webseries.S01E02.The.Eagle.Eye.Has.Landed.720p.WEBRip.x264.mp4  [47.40 Mb]
Continuum.Webseries.S01E03.Step.Back.To.The.Future.720p.WEBRip.x264.mp4  [43.52 Mb]
Continuum.Webseries.S01E04.Event.Horizontal.720p.WEBRip.x264.mp4  [68.34 Mb]
Continuum.Webseries.S01E05.Han.Soloist.720p.WEBRip.x264.mp4  [38.96 Mb]
Continuum.Webseries.S01E06.Two.Close.Encounters.720p.WEBRip.x264.mp4  [46.33 Mb]
Continuum.Webseries.S01E07.Lost.In.Myspace.720p.WEBRip.x264.mp4  [67.43 Mb]
Continuum.Webseries.S01E08.The.Ex-Terminator.720p.WEBRip.x264.mp4  [41.17 Mb]
Continuum.Webseries.S01E09.A.Space.Oddity.720p.WEBRip.x264.mp4  [43.13 Mb]
-thanks: MRouhani [9].
Image Image Image Image

[ Add all 10 links to your ed2k client ]

User avatar
momijigari
The Big Cheese
The Big Cheese
Posts: 6762
Joined: Tue Jan 29, 2008 10:36 am
Location: The Twilight Zone
Been thanked: 8903 times

Re: Continuum (Webseries) - S1,2

Post by momijigari » Fri Nov 08, 2013 9:58 pm

Season 2 (1080p WEBRip)
Continuum.Webseries.S02E01.The.Terminators.Salvation.1080p.WEBRip.mp4  [172.89 Mb]
Continuum.Webseries.S02E02.Solo.System.1080p.WEBRip.mp4  [168.83 Mb]
Continuum.Webseries.S02E03.Houston.We.Have.Another.1080p.WEBRip.mp4  [159.10 Mb]
Continuum.Webseries.S02E04.The.Empress.Strikes.Back.1080p.WEBRip.mp4  [85.37 Mb]
Continuum.Webseries.S02E05.Minority.Reporting.1080p.WEBRip.mp4  [114.47 Mb]
Continuum.Webseries.S02E06.Artificial.Intelligence.1080p.WEBRip.mp4  [140.36 Mb]
Continuum.Webseries.S02E07.The.Wrath.Of.A.Con.WEBRip.mp4  [121.61 Mb]
Continuum.Webseries.S02E08.Phone.Home.1080p.WEBRip.mp4  [119.64 Mb]
Continuum.Webseries.S02E09.The.Final.Frontier.1080p.WEBRip.mp4  [172.23 Mb]
-thanks: Dexter Morgan [9].

Code: Select all

General
Complete name                            : Continuum.Webseries.S02E01.The.Terminators.Salvation.1080p.WEB-DL.AVC.mp4
Format                                   : MPEG-4
Format profile                           : Base Media / Version 2
Codec ID                                 : mp42
File size                                : 173 MiB
Duration                                 : 7mn 55s
Overall bit rate mode                    : Variable
Overall bit rate                         : 3 047 Kbps

Video
ID                                       : 1
Format                                   : AVC
Format/Info                              : Advanced Video Codec
Format profile                           : High@L4.0
Format settings, CABAC                   : Yes
Format settings, ReFrames                : 1 frame
Codec ID                                 : avc1
Codec ID/Info                            : Advanced Video Coding
Duration                                 : 7mn 55s
Bit rate                                 : 2 852 Kbps
Maximum bit rate                         : 8 499 Kbps
Width                                    : 1 920 pixels
Height                                   : 1 080 pixels
Display aspect ratio                     : 16:9
Frame rate mode                          : Constant
Frame rate                               : 23.976 fps
Color space                              : YUV
Chroma subsampling                       : 4:2:0
Bit depth                                : 8 bits
Scan type                                : Progressive
Bits/(Pixel*Frame)                       : 0.057
Stream size                              : 162 MiB (94%)

Audio
ID                                       : 2
Format                                   : AAC
Format/Info                              : Advanced Audio Codec
Format profile                           : LC
Codec ID                                 : 40
Duration                                 : 7mn 55s
Bit rate mode                            : Variable
Bit rate                                 : 192 Kbps
Maximum bit rate                         : 201 Kbps
Channel count                            : 2 channels
Channel positions                        : Front: L R
Sampling rate                            : 44.1 KHz
Compression mode                         : Lossy
Stream size                              : 10.9 MiB (6%)


[ Add all 9 links to your ed2k client ]

Post Reply

Return to “Running / Returning Series”