Iron.Man.2.(2010).BDRip.720p.DTS.x264-METiS

Encodes in the resolution 720p from retail (BluRay, HDDVD) sources, with one or more English audio tracks only. This section does not include animated or TV/documentary films, it does however include black & white movies.
Post Reply
carlaaguiar
Registered user
Registered user
Posts: 60
Joined: Wed Nov 04, 2009 6:57 pm
Been thanked: 10 times

Iron.Man.2.(2010).BDRip.720p.DTS.x264-METiS

Post by carlaaguiar »

Image


Code: Select all

General
Complete name                    : D:\eMule\Iron.Man.2.(2010).720p.BluRay.x264-METiS.mkv
Format                           : Matroska
File size                        : 6.56 GiB
Duration                         : 2h 4mn
Overall bit rate                 : 7 530 Kbps
Encoded date                     : UTC 2010-09-09 06:09:44
Writing application              : mkvmerge v3.2.0 ('Beginnings') built on Feb 12 2010 16:46:17
Writing library                  : libebml v0.7.9 + libmatroska v0.8.1

Video
ID                               : 1
Format                           : AVC
Format/Info                      : Advanced Video Codec
Format profile                   : High@L4.1
Format settings, CABAC           : Yes
Format settings, ReFrames        : 5 frames
Muxing mode                      : Container profile=Unknown@4.1
Codec ID                         : V_MPEG4/ISO/AVC
Duration                         : 2h 4mn
Bit rate                         : 6 020 Kbps
Width                            : 1 280 pixels
Height                           : 544 pixels
Display aspect ratio             : 2.35:1
Frame rate                       : 23.976 fps
Color space                      : YUV
Chroma subsampling               : 4:2:0
Bit depth                        : 8 bits
Scan type                        : Progressive
Bits/(Pixel*Frame)               : 0.361
Stream size                      : 5.11 GiB (78%)
Writing library                  : x264 core 104 r1713 c276662
Encoding settings                : cabac=1 / ref=5 / deblock=1:0:0 / analyse=0x3:0x133 / me=umh / subme=7 / psy=1 / psy_rd=1.00:0.00 / mixed_ref=1 / me_range=16 / chroma_me=1 / trellis=1 / 8x8dct=1 / cqm=0 / deadzone=21,11 / fast_pskip=1 / chroma_qp_offset=-2 / threads=12 / sliced_threads=0 / nr=0 / decimate=1 / interlaced=0 / constrained_intra=0 / bframes=3 / b_pyramid=2 / b_adapt=2 / b_bias=0 / direct=3 / weightb=1 / open_gop=0 / weightp=2 / keyint=250 / keyint_min=23 / scenecut=40 / intra_refresh=0 / rc=2pass / mbtree=0 / bitrate=6020 / ratetol=1.0 / qcomp=0.60 / qpmin=10 / qpmax=51 / qpstep=4 / cplxblur=20.0 / qblur=0.5 / ip_ratio=1.40 / pb_ratio=1.30 / aq=1:1.00
Language                         : English

Audio
ID                               : 2
Format                           : DTS
Format/Info                      : Digital Theater Systems
Codec ID                         : A_DTS
Duration                         : 2h 4mn
Bit rate mode                    : Constant
Bit rate                         : 1 510 Kbps
Channel(s)                       : 6 channels
Channel positions                : Front: L C R, Side: L R, LFE
Sampling rate                    : 48.0 KHz
Bit depth                        : 24 bits
Stream size                      : 1.31 GiB (20%)
Language                         : English

Text
ID                               : 3
Format                           : UTF-8
Codec ID                         : S_TEXT/UTF8
Codec ID/Info                    : UTF-8 Plain Text
Language                         : English

Image
Image
Image
Image
Image

Iron.Man.2.2010.720p.BluRay.x264-METiS.mkv  [6.56 Gb]

memor
Registered user
Registered user
Posts: 8846
Joined: Tue Sep 17, 2013 10:59 am
Has thanked: 2 times
Been thanked: 1589 times

Re: Iron.Man.2.(2010).BDRip.720p.DTS.x264-METiS

Post by memor »

on reshare

Post Reply

Return to “Retail 720p (BluRay, HDDVD)”