The.Seagull.(2018).DVDRip.AC3.XviD-EVO

Standard definition movies, from the year 2010 onwards, ripped from a retail source (DVDRip, BDRip), excluding R5 DVDRips. Be aware that documentaries, foreign, animated and black & white movies have their own sections.
Post Reply
bjorn j
Donator
Donator
Posts: 2780
Joined: Wed Jan 07, 2009 1:49 pm
Has thanked: 43 times
Been thanked: 6474 times

The.Seagull.(2018).DVDRip.AC3.XviD-EVO

Post by bjorn j » Fri Sep 14, 2018 10:38 pm

Image

https://www.IMDb.com/title/tt4682136/
Genre: Drama

In the early 20th century, an aging actress and her lover visit the estate of her elderly brother.

Code: Select all

Format                                   : AVI
File size                                : 1.37 GiB
Duration                                 : 1 h 38 min
Overall bit rate                         : 1 992 kb/s

Video
ID                                       : 0
Format                                   : MPEG-4 Visual
Format profile                           : Simple@L3
Format settings, BVOP                    : No
Format settings, QPel                    : No
Format settings, GMC                     : No warppoints
Format settings, Matrix                  : Default (H.263)
Codec ID                                 : XviD
Codec ID/Hint                            : XviD
Duration                                 : 1 h 38 min
Source duration                          : 1 h 38 min
Bit rate                                 : 1 533 kb/s
Width                                    : 720 pixels
Height                                   : 304 pixels
Display aspect ratio                     : 2.35:1
Frame rate                               : 23.976 (24000/1001) FPS
Color space                              : YUV
Chroma subsampling                       : 4:2:0
Bit depth                                : 8 bits
Scan type                                : Progressive
Compression mode                         : Lossy
Bits/(Pixel*Frame)                       : 0.292
Stream size                              : 1.06 GiB (77%)
Writing library                          : XviD 1.1.2 (UTC 2006-11-01)

Audio
ID                                       : 1
Format                                   : AC-3
Format/Info                              : Audio Coding 3
Commercial name                          : Dolby Digital
Codec ID                                 : 2000
Duration                                 : 1 h 38 min
Bit rate mode                            : Constant
Bit rate                                 : 448 kb/s
Channel(s)                               : 6 channels
Channel layout                           : L R C LFE Ls Rs
Sampling rate                            : 48.0 kHz
Frame rate                               : 31.250 FPS (1536 SPF)
Bit depth                                : 16 bits
Compression mode                         : Lossy
Stream size                              : 316 MiB (22%)
Alignment                                : Aligned on interleaves
Interleave, duration                     : 32  ms (0.77 video frame)
Service kind                             : Complete Main
Image
Image
Image
Image

The.Seagull.2018.DVDRip.XviD.AC3-EVO.avi  [1.37 Gb]

Post Reply

Return to “Retail Rips (2010-) (BDRip, DVDRip)”