This.Old.Machine.(2017).DVDRip.AC3.XviD-EVO

Standard definition movies, from the year 2010 onwards, ripped from a retail source (DVDRip, BDRip), excluding R5 DVDRips. Be aware that documentaries, foreign, animated and black & white movies have their own sections.
Post Reply
bjorn j
Donator
Donator
Posts: 2780
Joined: Wed Jan 07, 2009 1:49 pm
Has thanked: 43 times
Been thanked: 6474 times

This.Old.Machine.(2017).DVDRip.AC3.XviD-EVO

Post by bjorn j » Sat Aug 18, 2018 8:49 pm

Image

https://www.IMDb.com/title/tt7650198/
Genre: Thriller

Vint is in a troubled marriage. After taking a road trip with his wife they are abducted leaving him for dead and his wife missing. Months later he awakens from a coma, returns home and starts to get his life back in order. Mia his young sister-in-law moves in to take care of him as he recovers. After evidence comes forth and authorities have long given up. The two team up and return to the small town where his wife was last seen. They are led down a violent rabbit-hole where they might not find out the truth behind her disappearance.

Code: Select all

Format                                   : AVI
Format/Info                              : Audio Video Interleave
File size                                : 1.25 GiB
Duration                                 : 1 h 23 min
Overall bit rate                         : 2 155 kb/s

Video
ID                                       : 0
Format                                   : MPEG-4 Visual
Format profile                           : Advanced Simple@L5
Format settings                          : BVOP2
Format settings, BVOP                    : 2
Format settings, QPel                    : No
Format settings, GMC                     : No warppoints
Format settings, Matrix                  : Default (H.263)
Muxing mode                              : Packed bitstream
Codec ID                                 : XviD
Codec ID/Hint                            : XviD
Duration                                 : 1 h 23 min
Bit rate                                 : 1 696 kb/s
Width                                    : 720 pixels
Height                                   : 368 pixels
Display aspect ratio                     : 1.957
Frame rate                               : 29.970 (30000/1001) FPS
Color space                              : YUV
Chroma subsampling                       : 4:2:0
Bit depth                                : 8 bits
Scan type                                : Progressive
Compression mode                         : Lossy
Bits/(Pixel*Frame)                       : 0.214
Stream size                              : 1 011 MiB (79%)
Writing library                          : XviD 66

Audio
ID                                       : 1
Format                                   : AC-3
Format/Info                              : Audio Coding 3
Codec ID                                 : 2000
Duration                                 : 1 h 23 min
Bit rate mode                            : Constant
Bit rate                                 : 448 kb/s
Channel(s)                               : 6 channels
Channel positions                        : Front: L C R, Side: L R, LFE
Sampling rate                            : 48.0 kHz
Frame rate                               : 31.250 FPS (1536 SPF)
Bit depth                                : 16 bits
Compression mode                         : Lossy
Stream size                              : 267 MiB (21%)
Alignment                                : Aligned on interleaves
Interleave, duration                     : 33  ms (1.00 video frame)
Interleave, preload duration             : 512  ms
Service kind                             : Complete Main
Image
Image
Image

This.Old.Machine.2017.DVDRip.XviD.AC3-EVO.avi  [1.25 Gb]

Post Reply

Return to “Retail Rips (2010-) (BDRip, DVDRip)”