Alien.Covenant.(2017).HD-TS.x264-CPG

Any non-retail/cinema releases which are now available in the retail movie sections will be moved here.
Locked
bjorn j
Donator
Donator
Posts: 3290
Joined: Wed Jan 07, 2009 1:49 pm
Has thanked: 24 times
Been thanked: 4919 times

Alien.Covenant.(2017).HD-TS.x264-CPG

Post by bjorn j » Thu May 25, 2017 7:47 pm

Image

http://www.IMDb.com/title/tt2316204/
Genres: Sci-Fi, Horror, Thriller

The crew of a colony ship, bound for a remote planet, discover an uncharted paradise with a threat beyond their imagination, and must attempt a harrowing escape.

Code: Select all

Format                                   : Matroska
Format version                           : Version 4 / Version 2
File size                                : 2.43 GiB
Duration                                 : 2h 1mn
Overall bit rate mode                    : Variable
Overall bit rate                         : 2 847 Kbps

Video
ID                                       : 1
Format                                   : AVC
Format/Info                              : Advanced Video Codec
Format profile                           : High@L4.2
Format settings, CABAC                   : Yes
Format settings, ReFrames                : 4 frames
Codec ID                                 : V_MPEG4/ISO/AVC
Duration                                 : 2h 1mn
Bit rate mode                            : Variable
Bit rate                                 : 2 600 Kbps
Maximum bit rate                         : 62.5 Mbps
Width                                    : 880 pixels
Height                                   : 432 pixels
Display aspect ratio                     : 2.037
Frame rate mode                          : Constant
Frame rate                               : 30.000 fps
Color space                              : YUV
Chroma subsampling                       : 4:2:0
Bit depth                                : 8 bits
Scan type                                : Progressive
Bits/(Pixel*Frame)                       : 0.228
Stream size                              : 2.21 GiB (91%)
Writing library                          : x264 core 148 r2744 b97ae06

Audio
ID                                       : 2
Format                                   : MPEG Audio
Format version                           : Version 1
Format profile                           : Layer 3
Codec ID                                 : A_MPEG/L3
Codec ID/Hint                            : MP3
Duration                                 : 2h 1mn
Bit rate mode                            : Constant
Bit rate                                 : 192 Kbps
Channel(s)                               : 2 channels
Sampling rate                            : 44.1 KHz
Compression mode                         : Lossy
Stream size                              : 168 MiB (7%)
Default                                  : Yes
Forced                                   : No
Image
Image
Image
Image

Alien.Covenant.2017.HD-TS.x264-CPG.mkv  [2.43 Gb]

Locked

Return to “Non-Retail Archive”