Nappily.Ever.After.(2018).WEBRip.720p.AC3.x264-CMRG

Encodes in the resolutions 720p, 810p and 1080p, and in irregular HD resolutions, from non-retail (WEB or HDTV) sources, with one or more English audio tracks only. This section does not include animated or TV/documentary films, it does however include black & white movies.
Post Reply
bjorn j
Donator
Donator
Posts: 2799
Joined: Wed Jan 07, 2009 1:49 pm
Has thanked: 44 times
Been thanked: 6562 times

Nappily.Ever.After.(2018).WEBRip.720p.AC3.x264-CMRG

Post by bjorn j » Fri Sep 21, 2018 10:33 pm

Image

https://www.IMDb.com/title/tt0365545/
Genres: Comedy, Drama, Romance

Violet Jones tired of waiting for her longtime boyfriend to propose, breaks up with him. But old feelings, and heaps of jealousy, no doubt, arise when he promptly begins dating another woman.

Code: Select all

Format                         : Matroska
File size                      : 2.15 GiB
Duration                       : 1h 38mn
Overall bit rate               : 3 119 Kbps

Video
ID                             : 1
Format                         : AVC
Format/Info                    : Advanced Video Codec
Format profile                 : Main@L3.1
Format settings, CABAC         : Yes
Format settings, ReFrames      : 3 frames
Codec ID                       : V_MPEG4/ISO/AVC
Duration                       : 1h 38mn
Bit rate mode                  : Variable
Bit rate                       : 2 490 Kbps
Maximum bit rate               : 3 735 Kbps
Width                          : 1 280 pixels
Height                         : 720 pixels
Display aspect ratio           : 16:9
Frame rate mode                : Constant
Frame rate                     : 23.976 fps
Color space                    : YUV
Chroma subsampling             : 4:2:0
Bit depth                      : 8 bits
Scan type                      : Progressive
Bits/(Pixel*Frame)             : 0.113
Stream size                    : 1.66 GiB (77%)

Audio
ID                             : 2
Format                         : E-AC-3
Format/Info                    : Audio Coding 3
Format settings, Endianness    : Big
Codec ID                       : A_EAC3
Duration                       : 1h 38mn
Bit rate mode                  : Constant
Bit rate                       : 640 Kbps
Channel(s)                     : 6 channels
Channel positions              : Front: L C R, Side: L R, LFE
Sampling rate                  : 48.0 KHz
Compression mode               : Lossy
Stream size                    : 451 MiB (21%)
Default                        : Yes
Forced                         : No
ImageImage

Nappily.Ever.After.2018.720p.WEB-DL.H264-CMRG.mkv  [2.15 Gb]

Post Reply

Return to “Non-Retail HD (720p, 810p, 1080p)”