Winter.Ridge.(2018).WEBRip.720p.AC3.x264-CMRG

Encodes in the resolutions 720p, 810p and 1080p, and in irregular HD resolutions, from non-retail (WEB or HDTV) sources, with one or more English audio tracks only. This section does not include animated or TV/documentary films, it does however include black & white movies.
Post Reply
bjorn j
Donator
Donator
Posts: 2799
Joined: Wed Jan 07, 2009 1:49 pm
Has thanked: 44 times
Been thanked: 6562 times

Winter.Ridge.(2018).WEBRip.720p.AC3.x264-CMRG

Post by bjorn j » Tue Sep 18, 2018 10:58 am

Image

https://www.IMDb.com/title/tt5973658/
Genre: Thriller

A young detective is torn apart after his wife ends up in a coma while hunting a serial-killer at the same time.

Code: Select all

Format                                   : Matroska
File size                                : 2.70 GiB
Duration                                 : 1 h 26 min
Overall bit rate                         : 4 458 kb/s

Video
ID                                       : 1
Format                                   : AVC
Format/Info                              : Advanced Video Codec
Format profile                           : Main@L3.1
Format settings                          : 2 Ref Frames
Format settings, CABAC                   : No
Format settings, RefFrames               : 2 frames
Codec ID                                 : V_MPEG4/ISO/AVC
Duration                                 : 1 h 26 min
Bit rate                                 : 4 072 kb/s
Width                                    : 1 280 pixels
Height                                   : 532 pixels
Display aspect ratio                     : 2.40:1
Frame rate mode                          : Constant
Frame rate                               : 24.000 FPS
Color space                              : YUV
Chroma subsampling                       : 4:2:0
Bit depth                                : 8 bits
Scan type                                : Progressive
Bits/(Pixel*Frame)                       : 0.249
Stream size                              : 2.47 GiB (91%)
Language                                 : English
Default                                  : Yes
Forced                                   : No
Color range                              : Limited
Color primaries                          : BT.709
Transfer characteristics                 : BT.709
Matrix coefficients                      : BT.709

Audio
ID                                       : 2
Format                                   : AC-3
Format/Info                              : Audio Coding 3
Commercial name                          : Dolby Digital
Codec ID                                 : A_AC3
Duration                                 : 1 h 26 min
Bit rate mode                            : Constant
Bit rate                                 : 384 kb/s
Channel(s)                               : 6 channels
Channel layout                           : L R C LFE Ls Rs
Sampling rate                            : 48.0 kHz
Frame rate                               : 31.250 FPS (1536 SPF)
Bit depth                                : 16 bits
Compression mode                         : Lossy
Delay relative to video                  : -42 ms
Stream size                              : 238 MiB (9%)
Language                                 : English
Service kind                             : Complete Main
Default                                  : Yes
Forced                                   : No

Menu
00:00:00.000                             : en:1
00:06:52.000                             : en:2
00:14:22.000                             : en:3
00:20:40.000                             : en:4
00:28:42.000                             : en:5
00:36:21.000                             : en:6
00:44:07.000                             : en:7
00:51:03.000                             : en:8
00:57:47.000                             : en:9
01:04:17.000                             : en:10
01:12:24.000                             : en:11
01:20:50.000                             : en:12
ImageImage

Winter.Ridge.2018.720p.WEB-DL.DD5.1.H264-CMRG.mkv  [2.70 Gb]

Post Reply

Return to “Non-Retail HD (720p, 810p, 1080p)”