Mara.(2018).WEBRip.720p.AC3.x264-EVO

Encodes in the resolutions 720p, 810p and 1080p, and in irregular HD resolutions, from non-retail (WEB or HDTV) sources, with one or more English audio tracks only. This section does not include animated or TV/documentary films, it does however include black & white movies.
Post Reply
bjorn j
Donator
Donator
Posts: 2792
Joined: Wed Jan 07, 2009 1:49 pm
Has thanked: 44 times
Been thanked: 6518 times

Mara.(2018).WEBRip.720p.AC3.x264-EVO

Post by bjorn j » Fri Sep 07, 2018 11:49 am

Image

https://www.IMDb.com/title/tt1773753/
Genres: Crime, Horror, Thriller

Criminal psychologist Kate Fuller is assigned to the murder of a man who has seemingly been strangled in his sleep by his wife and the only witness is their eight-year-old daughter, Sophie. As Kate digs into the mystery of an ancient demon which kills people in their sleep, she experiences the same petrifying symptoms as all previous victims and spirals through a chilling nightmare to save herself and Sophie before she dares fall asleep again.

Code: Select all

Format                                   : Matroska
File size                                : 3.06 GiB
Duration                                 : 1 h 39 min
Overall bit rate                         : 4 415 kb/s

Video
ID                                       : 2
Format                                   : AVC
Format/Info                              : Advanced Video Codec
Format profile                           : Main@L3.1
Format settings                          : 2 Ref Frames
Format settings, CABAC                   : No
Format settings, RefFrames               : 2 frames
Codec ID                                 : V_MPEG4/ISO/AVC
Duration                                 : 1 h 39 min
Bit rate                                 : 4 030 kb/s
Width                                    : 1 280 pixels
Height                                   : 528 pixels
Display aspect ratio                     : 2.40:1
Frame rate mode                          : Constant
Frame rate                               : 23.976 FPS
Color space                              : YUV
Chroma subsampling                       : 4:2:0
Bit depth                                : 8 bits
Scan type                                : Progressive
Bits/(Pixel*Frame)                       : 0.249
Stream size                              : 2.79 GiB (91%)
Language                                 : English
Default                                  : Yes
Forced                                   : No
Color range                              : Limited
Color primaries                          : BT.709
Transfer characteristics                 : BT.709
Matrix coefficients                      : BT.709

Audio
ID                                       : 1
Format                                   : AC-3
Format/Info                              : Audio Coding 3
Commercial name                          : Dolby Digital
Codec ID                                 : A_AC3
Duration                                 : 1 h 39 min
Bit rate mode                            : Constant
Bit rate                                 : 384 kb/s
Channel(s)                               : 6 channels
Channel layout                           : L R C LFE Ls Rs
Sampling rate                            : 48.0 kHz
Frame rate                               : 31.250 FPS (1536 SPF)
Bit depth                                : 16 bits
Compression mode                         : Lossy
Delay relative to video                  : -42 ms
Stream size                              : 272 MiB (9%)
Language                                 : English
Service kind                             : Complete Main
Default                                  : Yes
Forced                                   : No

Menu
00:00:00.000                             : en:1
00:05:39.000                             : en:2
00:13:02.000                             : en:3
00:20:49.000                             : en:4
00:29:22.000                             : en:5
00:38:58.000                             : en:6
00:47:22.000                             : en:7
00:55:44.000                             : en:8
01:03:26.000                             : en:9
01:11:03.000                             : en:10
01:22:00.000                             : en:11
01:29:18.000                             : en:12
01:35:44.000                             : en:13
ImageImage

Mara.2018.720p.WEB-DL.H264.AC3-EVO.mkv  [3.06 Gb]

Post Reply

Return to “Non-Retail HD (720p, 810p, 1080p)”