Skyscraper.(2018).WEBRip.720p.x264-EVO

Encodes in the resolutions 720p, 810p and 1080p, and in irregular HD resolutions, from non-retail (WEB or HDTV) sources, with one or more English audio tracks only. This section does not include animated or TV/documentary films, it does however include black & white movies.
Post Reply
bjorn j
Donator
Donator
Posts: 2799
Joined: Wed Jan 07, 2009 1:49 pm
Has thanked: 44 times
Been thanked: 6562 times

Skyscraper.(2018).WEBRip.720p.x264-EVO

Post by bjorn j » Wed Sep 05, 2018 11:22 pm

Image

https://www.IMDb.com/title/tt5758778/
Genres: Action, Thriller

A security expert must infiltrate a burning skyscraper, 225 stories above ground, when his family are trapped inside by criminals.

Code: Select all

Format                                   : Matroska
File size                                : 3.06 GiB
Duration                                 : 1 h 42 min
Overall bit rate                         : 4 272 kb/s
Movie name                               : EVO

Video
ID                                       : 3
Format                                   : AVC
Format/Info                              : Advanced Video Codec
Format profile                           : Main@L3.1
Format settings                          : 2 Ref Frames
Format settings, CABAC                   : No
Format settings, RefFrames               : 2 frames
Codec ID                                 : V_MPEG4/ISO/AVC
Duration                                 : 1 h 42 min
Bit rate                                 : 3 995 kb/s
Width                                    : 1 280 pixels
Height                                   : 532 pixels
Display aspect ratio                     : 2.40:1
Frame rate mode                          : Constant
Frame rate                               : 23.976 FPS
Color space                              : YUV
Chroma subsampling                       : 4:2:0
Bit depth                                : 8 bits
Scan type                                : Progressive
Bits/(Pixel*Frame)                       : 0.245
Stream size                              : 2.86 GiB (94%)
Language                                 : English
Default                                  : Yes
Forced                                   : No
Color range                              : Limited
Color primaries                          : BT.709
Transfer characteristics                 : BT.709
Matrix coefficients                      : BT.709

Audio
ID                                       : 2
Format                                   : AC-3
Format/Info                              : Audio Coding 3
Commercial name                          : Dolby Digital
Codec ID                                 : A_AC3
Duration                                 : 1 h 42 min
Bit rate mode                            : Constant
Bit rate                                 : 192 kb/s
Channel(s)                               : 2 channels
Channel layout                           : L R
Sampling rate                            : 48.0 kHz
Frame rate                               : 31.250 FPS (1536 SPF)
Bit depth                                : 16 bits
Compression mode                         : Lossy
Stream size                              : 141 MiB (4%)
Language                                 : English
Service kind                             : Complete Main
Default                                  : Yes
Forced                                   : No

Text
ID                                       : 1
Format                                   : UTF-8
Codec ID                                 : S_TEXT/UTF8
Codec ID/Info                            : UTF-8 Plain Text
Language                                 : English
Default                                  : Yes
Forced                                   : No

Menu
00:00:00.000                             : en:1 / en:1
00:04:25.765                             : en:2 / en:2
00:10:08.357                             : en:3 / en:3
00:16:10.927                             : en:4 / en:4
00:21:13.604                             : en:5 / en:5
00:25:35.991                             : en:6 / en:6
00:30:12.726                             : en:7 / en:7
00:35:24.913                             : en:8 / en:8
00:40:08.112                             : en:9 / en:9
00:47:19.960                             : en:10 / en:10
00:52:11.251                             : en:11 / en:11
00:58:17.784                             : en:12 / en:12
01:02:03.968                             : en:13 / en:13
01:05:30.632                             : en:14 / en:14
01:10:00.401                             : en:15 / en:15
01:14:32.423                             : en:16 / en:16
01:17:19.256                             : en:17 / en:17
01:23:34.339                             : en:18 / en:18
01:27:47.216                             : en:19 / en:19
01:32:55.566                             : en:20 / en:20
ImageImage

Skyscraper.2018.720p.WEB-DL.H264.AC3-EVO.mkv  [3.06 Gb]

Post Reply

Return to “Non-Retail HD (720p, 810p, 1080p)”