UFO.(2018).WEBRip.1080p.AC3.x264-CMRG

Encodes in the resolutions 720p, 810p and 1080p, and in irregular HD resolutions, from non-retail (WEB or HDTV) sources, with one or more English audio tracks only. This section does not include animated or TV/documentary films, it does however include black & white movies.
Post Reply
bjorn j
Donator
Donator
Posts: 2792
Joined: Wed Jan 07, 2009 1:49 pm
Has thanked: 44 times
Been thanked: 6518 times

UFO.(2018).WEBRip.1080p.AC3.x264-CMRG

Post by bjorn j » Mon Sep 03, 2018 11:38 am

Image

https://www.IMDb.com/title/tt6290798/
Genres: Action, Sci-Fi, Thriller

College student Derek Echevaro believes he saw a UFO when he was younger, which fuels his motivation to try to prove the existence of extraterrestrials. He focuses on UFO sightings at American airports with his professor and girlfriend's help, but the FBI tries to stop them.

Code: Select all

Format                                   : Matroska
File size                                : 3.10 GiB
Duration                                 : 1 h 28 min
Overall bit rate                         : 5 011 kb/s

Video
ID                                       : 1
Format                                   : AVC
Format/Info                              : Advanced Video Codec
Format profile                           : High@L4
Format settings                          : CABAC / 5 Ref Frames
Format settings, CABAC                   : Yes
Format settings, RefFrames               : 5 frames
Format settings, GOP                     : N=1
Codec ID                                 : V_MPEG4/ISO/AVC
Duration                                 : 1 h 28 min
Bit rate                                 : 4 626 kb/s
Width                                    : 1 920 pixels
Height                                   : 796 pixels
Display aspect ratio                     : 2.40:1
Frame rate mode                          : Constant
Frame rate                               : 23.976 (24000/1001) FPS
Color space                              : YUV
Chroma subsampling                       : 4:2:0
Bit depth                                : 8 bits
Scan type                                : Progressive
Bits/(Pixel*Frame)                       : 0.126
Stream size                              : 2.86 GiB (92%)
Language                                 : English
Default                                  : Yes
Forced                                   : No
Color range                              : Limited
Color primaries                          : BT.709
Transfer characteristics                 : BT.709
Matrix coefficients                      : BT.709

Audio
ID                                       : 2
Format                                   : AC-3
Format/Info                              : Audio Coding 3
Codec ID                                 : A_AC3
Duration                                 : 1 h 28 min
Bit rate mode                            : Constant
Bit rate                                 : 384 kb/s
Channel(s)                               : 6 channels
Channel positions                        : Front: L C R, Side: L R, LFE
Sampling rate                            : 48.0 kHz
Frame rate                               : 31.250 FPS (1536 SPF)
Bit depth                                : 16 bits
Compression mode                         : Lossy
Delay relative to video                  : -43 ms
Stream size                              : 243 MiB (8%)
Language                                 : English
Service kind                             : Complete Main
Default                                  : Yes
Forced                                   : No

Menu
00:00:00.000                             : en:1
00:03:54.484                             : en:2
00:08:24.504                             : en:3
00:11:45.496                             : en:4
00:17:35.429                             : en:5
00:23:10.013                             : en:6
00:31:04.570                             : en:7
00:35:20.325                             : en:8
00:40:28.800                             : en:9
00:42:07.148                             : en:10
00:44:50.019                             : en:11
00:51:54.151                             : en:12
00:59:45.997                             : en:13
01:08:48.164                             : en:14
01:14:23.082                             : en:15
01:18:33.415                             : en:16
Image

UFO.2018.1080p.WEB-DL.DD5.1.H264-CMRG.mkv  [3.10 Gb]

Post Reply

Return to “Non-Retail HD (720p, 810p, 1080p)”