Boarding.School.(2018).WEBRip.720p.AC3.x264-CMRG

Encodes in the resolutions 720p, 810p and 1080p, and in irregular HD resolutions, from non-retail (WEB or HDTV) sources, with one or more English audio tracks only. This section does not include animated or TV/documentary films, it does however include black & white movies.
Post Reply
bjorn j
Donator
Donator
Posts: 2799
Joined: Wed Jan 07, 2009 1:49 pm
Has thanked: 44 times
Been thanked: 6562 times

Boarding.School.(2018).WEBRip.720p.AC3.x264-CMRG

Post by bjorn j » Fri Aug 31, 2018 2:58 pm

Image

https://www.IMDb.com/title/tt6224502/
Genre: Horror

A young boy becomes fascinated with the persona of his dead grandmother and is sent to an isolated boarding school for misfits run by a mysterious headmaster and his wife.

Code: Select all

Format                                   : Matroska
File size                                : 3.50 GiB
Duration                                 : 1 h 51 min
Overall bit rate                         : 4 477 kb/s

Video
ID                                       : 1
Format                                   : AVC
Format/Info                              : Advanced Video Codec
Format profile                           : High@L3.1
Format settings                          : 2 Ref Frames
Format settings, CABAC                   : No
Format settings, RefFrames               : 2 frames
Codec ID                                 : V_MPEG4/ISO/AVC
Duration                                 : 1 h 51 min
Bit rate                                 : 4 091 kb/s
Width                                    : 1 280 pixels
Height                                   : 720 pixels
Display aspect ratio                     : 16:9
Frame rate mode                          : Constant
Frame rate                               : 23.976 (23976/1000) FPS
Color space                              : YUV
Chroma subsampling                       : 4:2:0
Bit depth                                : 8 bits
Scan type                                : Progressive
Bits/(Pixel*Frame)                       : 0.185
Stream size                              : 3.20 GiB (91%)
Language                                 : English
Default                                  : Yes
Forced                                   : No
Color range                              : Limited
Color primaries                          : BT.709
Transfer characteristics                 : BT.709
Matrix coefficients                      : BT.709

Audio
ID                                       : 2
Format                                   : AC-3
Format/Info                              : Audio Coding 3
Codec ID                                 : A_AC3
Duration                                 : 1 h 51 min
Bit rate mode                            : Constant
Bit rate                                 : 384 kb/s
Channel(s)                               : 6 channels
Channel positions                        : Front: L C R, Side: L R, LFE
Sampling rate                            : 48.0 kHz
Frame rate                               : 31.250 FPS (1536 SPF)
Bit depth                                : 16 bits
Compression mode                         : Lossy
Delay relative to video                  : -42 ms
Stream size                              : 307 MiB (9%)
Language                                 : English
Service kind                             : Complete Main
Default                                  : Yes
Forced                                   : No

Menu
00:00:00.000                             : en:1
00:07:19.397                             : en:2
00:13:32.269                             : en:3
00:21:06.264                             : en:4
00:28:05.600                             : en:5
00:33:59.370                             : en:6
00:43:18.595                             : en:7
00:47:08.700                             : en:8
00:56:29.635                             : en:9
01:02:31.330                             : en:10
01:10:25.387                             : en:11
01:16:08.104                             : en:12
01:20:40.042                             : en:13
01:32:23.787                             : en:14
01:39:43.977                             : en:15
01:42:33.730                             : en:16
Image

Boarding.School.2018.720p.WEB-DL.DD5.1.H264-CMRG.mkv  [3.50 Gb]

Post Reply

Return to “Non-Retail HD (720p, 810p, 1080p)”