The.Padre.(2018).WEBRip.1080p.AC3.x264-EVO

Encodes in the resolutions 720p, 810p and 1080p, and in irregular HD resolutions, from non-retail (WEB or HDTV) sources, with one or more English audio tracks only. This section does not include animated or TV/documentary films, it does however include black & white movies.
Post Reply
bjorn j
Donator
Donator
Posts: 2792
Joined: Wed Jan 07, 2009 1:49 pm
Has thanked: 44 times
Been thanked: 6518 times

The.Padre.(2018).WEBRip.1080p.AC3.x264-EVO

Post by bjorn j » Mon Aug 27, 2018 7:19 pm

Image

https://www.IMDb.com/title/tt6782276/
Genre: Drama

It tells the story of the Padre (Roth), a small-time con man on the run from his dogged pursuers, U.S. Court Justice Nemes (Nolte) and local police officer Gaspar (Guzmán). When the Padre is caught mid-con, he flees the scene in a stolen car, unaware that a precocious 16-year-old girl, Lena (Henriquez), is stowing away in the back seat. After she blackmails him into letting her join his journey, the duo plan their biggest heist yet - not always aware of the dangers of working with each other and the law closing in on them.

Code: Select all

Format                                   : Matroska
File size                                : 3.26 GiB
Duration                                 : 1 h 35 min
Overall bit rate                         : 4 907 kb/s

Video
ID                                       : 2
Format                                   : AVC
Format/Info                              : Advanced Video Codec
Format profile                           : High@L4
Format settings                          : CABAC / 5 Ref Frames
Format settings, CABAC                   : Yes
Format settings, RefFrames               : 5 frames
Codec ID                                 : V_MPEG4/ISO/AVC
Duration                                 : 1 h 35 min
Bit rate                                 : 4 425 kb/s
Width                                    : 1 920 pixels
Height                                   : 796 pixels
Display aspect ratio                     : 2.40:1
Frame rate mode                          : Constant
Frame rate                               : 23.976 FPS
Color space                              : YUV
Chroma subsampling                       : 4:2:0
Bit depth                                : 8 bits
Scan type                                : Progressive
Bits/(Pixel*Frame)                       : 0.121
Stream size                              : 2.94 GiB (90%)
Language                                 : English
Default                                  : Yes
Forced                                   : No
Color range                              : Limited
Color primaries                          : BT.709
Transfer characteristics                 : BT.709
Matrix coefficients                      : BT.709

Audio
ID                                       : 1
Format                                   : AC-3
Format/Info                              : Audio Coding 3
Codec ID                                 : A_AC3
Duration                                 : 1 h 35 min
Bit rate mode                            : Constant
Bit rate                                 : 384 kb/s
Channel(s)                               : 6 channels
Channel positions                        : Front: L C R, Side: L R, LFE
Sampling rate                            : 48.0 kHz
Frame rate                               : 31.250 FPS (1536 SPF)
Bit depth                                : 16 bits
Compression mode                         : Lossy
Stream size                              : 261 MiB (8%)
Language                                 : English
Service kind                             : Complete Main
Default                                  : Yes
Forced                                   : No

Menu
00:00:00.000                             : en:1
00:05:57.732                             : en:2
00:12:42.553                             : en:3
00:18:00.286                             : en:4
00:23:41.000                             : en:5
00:29:40.483                             : en:6
00:35:47.140                             : en:7
00:43:16.506                             : en:8
00:46:55.683                             : en:9
00:53:58.688                             : en:10
00:57:25.519                             : en:11
01:04:34.154                             : en:12
01:08:47.406                             : en:13
01:16:22.943                             : en:14
01:25:41.042                             : en:15
01:27:56.509                             : en:16
Image

The.Padre.2018.1080p.WEB-DL.H264.AC3-EVO.mkv  [3.26 Gb]

Post Reply

Return to “Non-Retail HD (720p, 810p, 1080p)”