Vengeance.(2018).WEBRip.1080p.AC3.x264-CMRG

Encodes in the resolutions 720p, 810p and 1080p, and in irregular HD resolutions, from non-retail (WEB or HDTV) sources, with one or more English audio tracks only. This section does not include animated or TV/documentary films, it does however include black & white movies.
Post Reply
bjorn j
Donator
Donator
Posts: 2792
Joined: Wed Jan 07, 2009 1:49 pm
Has thanked: 44 times
Been thanked: 6518 times

Vengeance.(2018).WEBRip.1080p.AC3.x264-CMRG

Post by bjorn j » Fri Aug 24, 2018 12:15 pm

Image

https://www.IMDb.com/title/tt5885106/
Genre: Action

When ex-Special Forces soldier turned professional mercenary, John Gold (Stu Bennett), hears that his former best friend Corporal Dan Mason (Kevin Leslie), and Dan's parents have been murdered, he heads to their home-town to find their killers. Gold discovers that Dan and his father were investigating a Special Forces troop led by the enigmatic, highly decorated Sergeant Hatcher (Gary Daniels), that went rogue in Afghanistan. What unfolds next is a heart-pumping action thrill ride that leaves viewers on the edge of their seats.

Code: Select all

Format                                   : Matroska
File size                                : 3.23 GiB
Duration                                 : 1 h 33 min
Overall bit rate                         : 4 951 kb/s

Video
ID                                       : 1
Format                                   : AVC
Format/Info                              : Advanced Video Codec
Format profile                           : High@L4
Format settings                          : CABAC / 5 Ref Frames
Format settings, CABAC                   : Yes
Format settings, RefFrames               : 5 frames
Codec ID                                 : V_MPEG4/ISO/AVC
Duration                                 : 1 h 33 min
Bit rate                                 : 4 565 kb/s
Width                                    : 1 912 pixels
Height                                   : 848 pixels
Display aspect ratio                     : 2.25:1
Frame rate mode                          : Constant
Frame rate                               : 23.976 (24000/1001) FPS
Color space                              : YUV
Chroma subsampling                       : 4:2:0
Bit depth                                : 8 bits
Scan type                                : Progressive
Bits/(Pixel*Frame)                       : 0.117
Stream size                              : 2.98 GiB (92%)
Language                                 : English
Default                                  : Yes
Forced                                   : No
Color range                              : Limited
Color primaries                          : BT.709
Transfer characteristics                 : BT.709
Matrix coefficients                      : BT.709

Audio
ID                                       : 2
Format                                   : AC-3
Format/Info                              : Audio Coding 3
Codec ID                                 : A_AC3
Duration                                 : 1 h 33 min
Bit rate mode                            : Constant
Bit rate                                 : 384 kb/s
Channel(s)                               : 6 channels
Channel positions                        : Front: L C R, Side: L R, LFE
Sampling rate                            : 48.0 kHz
Frame rate                               : 31.250 FPS (1536 SPF)
Bit depth                                : 16 bits
Compression mode                         : Lossy
Delay relative to video                  : -42 ms
Stream size                              : 257 MiB (8%)
Language                                 : English
Service kind                             : Complete Main
Default                                  : Yes
Forced                                   : No

Menu
00:00:00.000                             : en:1
00:05:34.000                             : en:2
00:15:10.000                             : en:3
00:24:42.000                             : en:4
00:34:48.000                             : en:5
00:44:05.000                             : en:6
00:57:49.000                             : en:7
01:07:57.000                             : en:8
01:19:06.000                             : en:9
01:29:41.000                             : en:10
Image

Vengeance.2018.1080p.WEB-DL.DD5.1.H264-CMRG.mkv  [3.23 Gb]

Post Reply

Return to “Non-Retail HD (720p, 810p, 1080p)”