Devils.Gate.(2017).WEBRip.1080p.AC3.x264-FGT

Encodes in the resolutions 720p, 810p and 1080p, and in irregular HD resolutions, from non-retail (WEB or HDTV) sources, with one or more English audio tracks only. This section does not include animated or TV/documentary films, it does however include black & white movies.
Post Reply
bjorn j
Donator
Donator
Posts: 2701
Joined: Wed Jan 07, 2009 1:49 pm
Has thanked: 33 times
Been thanked: 6027 times

Devils.Gate.(2017).WEBRip.1080p.AC3.x264-FGT

Post by bjorn j » Fri Jan 05, 2018 6:28 pm

Image

http://www.IMDb.com/title/tt4610748/
Genres: Horror, Sci-Fi, Thriller

Set in the small town of Devil's Gate, North Dakota, the film examines the disappearance of a local woman (Regan) and her young son. Schull plays an FBI agent who helps the local sheriff (Frakes) search for answers. Partnering with a deputy (Ashmore), they track down the missing woman's husband (Ventimiglia) and find that nothing is as it seems.

Code: Select all

Video
ID                                       : 1
Format                                   : AVC
Format/Info                              : Advanced Video Codec
Format profile                           : High@L4
Format settings                          : CABAC / 5 Ref Frames
Format settings, CABAC                   : Yes
Format settings, ReFrames                : 5 frames
Codec ID                                 : V_MPEG4/ISO/AVC
Duration                                 : 1 h 34 min
Bit rate                                 : 4 607 kb/s
Width                                    : 1 920 pixels
Height                                   : 796 pixels
Display aspect ratio                     : 2.40:1
Frame rate mode                          : Constant
Frame rate                               : 23.976 (23976/1000) FPS
Color space                              : YUV
Chroma subsampling                       : 4:2:0
Bit depth                                : 8 bits
Scan type                                : Progressive
Bits/(Pixel*Frame)                       : 0.126
Stream size                              : 3.03 GiB (92%)
Title                                    : Devils.Gate.2017.1080p.WEB-DL.DD5.1.H264-FGT
Language                                 : English
Default                                  : Yes
Forced                                   : No
Color range                              : Limited
Color primaries                          : BT.709
Transfer characteristics                 : BT.709
Matrix coefficients                      : BT.709

Audio
ID                                       : 2
Format                                   : AC-3
Format/Info                              : Audio Coding 3
Codec ID                                 : A_AC3
Duration                                 : 1 h 34 min
Bit rate mode                            : Constant
Bit rate                                 : 384 kb/s
Channel(s)                               : 6 channels
Channel positions                        : Front: L C R, Side: L R, LFE
Sampling rate                            : 48.0 kHz
Frame rate                               : 31.250 FPS (1536 SPF)
Bit depth                                : 16 bits
Compression mode                         : Lossy
Delay relative to video                  : -42 ms
Stream size                              : 259 MiB (8%)
Title                                    : Devils.Gate.2017.1080p.WEB-DL.DD5.1.H264-FGT
Language                                 : English
Service kind                             : Complete Main
Default                                  : Yes
Forced                                   : No

Text
ID                                       : 3
Format                                   : UTF-8
Codec ID                                 : S_TEXT/UTF8
Codec ID/Info                            : UTF-8 Plain Text
Duration                                 : 1 h 25 min
Bit rate                                 : 56 b/s
Count of elements                        : 1073
Stream size                              : 35.3 KiB (0%)
Language                                 : English
Default                                  : Yes
Forced                                   : No

Menu
00:00:00.000                             : en:1
00:11:54.547                             : en:2
00:23:47.718                             : en:3
00:34:33.822                             : en:4
00:47:00.276                             : en:5
00:57:27.152                             : en:6
01:09:10.647                             : en:7
01:19:24.635                             : en:8
01:27:22.279                             : en:9
Image

Devils.Gate.2017.1080p.WEB-DL.DD5.1.H264-FGT.mkv  [3.29 Gb]

Post Reply

Return to “Non-Retail HD (720p, 810p, 1080p)”