The.Humanity.Bureau.(2017).WEBRip.720p.AC3.X264-EVO

Encodes in the resolutions 720p, 810p and 1080p, and in irregular HD resolutions, from non-retail (WEB or HDTV) sources, with one or more English audio tracks only. This section does not include animated or TV/documentary films, it does however include black & white movies.
Post Reply
bjorn j
Donator
Donator
Posts: 2924
Joined: Wed Jan 07, 2009 1:49 pm
Has thanked: 24 times
Been thanked: 5753 times

The.Humanity.Bureau.(2017).WEBRip.720p.AC3.X264-EVO

Post by bjorn j » Mon Nov 13, 2017 3:08 pm

Image

http://www.IMDb.com/title/tt6143568/
Genres: Action, Sci-Fi

A dystopian thriller set in the year 2030 that sees the world in a permanent state of economic recession and facing serious environmental problems as a result of global warming.

The Humanity Bureau is set in 2030 and sees the world in a permanent state of economic recession, facing a series of environmental problems. In an attempt to take hold of the situation, a government agency called the Humanity Bureau exiles members of society deemed unproductive and banishes them. Cage plays a caseworker who sets off to save the lives of a mother and child and expose the truth about the bureau's secrets.

Code: Select all

Format                                   : Matroska
File size                                : 2.59 GiB
Duration                                 : 1h 34mn
Overall bit rate                         : 3 928 Kbps

Video
ID                                       : 1
Format                                   : AVC
Format/Info                              : Advanced Video Codec
Format profile                           : High@L4.1
Format settings, CABAC                   : Yes
Format settings, ReFrames                : 4 frames
Codec ID                                 : V_MPEG4/ISO/AVC
Duration                                 : 1h 34mn
Bit rate                                 : 3 587 Kbps
Width                                    : 1 280 pixels
Height                                   : 720 pixels
Display aspect ratio                     : 16:9
Frame rate mode                          : Constant
Frame rate                               : 23.976 fps
Color space                              : YUV
Chroma subsampling                       : 4:2:0
Bit depth                                : 8 bits
Scan type                                : Progressive
Bits/(Pixel*Frame)                       : 0.162
Stream size                              : 2.29 GiB (88%)
Writing library                          : x264 core 130 r2273 b3065e6

Audio
ID                                       : 2
Format                                   : AC-3
Format/Info                              : Audio Coding 3
Mode extension                           : CM (complete main)
Format settings, Endianness              : Big
Codec ID                                 : A_AC3
Duration                                 : 1h 34mn
Bit rate mode                            : Constant
Bit rate                                 : 384 Kbps
Channel(s)                               : 6 channels
Channel positions                        : Front: L C R, Side: L R, LFE
Sampling rate                            : 48.0 KHz
Bit depth                                : 16 bits
Compression mode                         : Lossy
Stream size                              : 259 MiB (10%)
Language                                 : English
Default                                  : Yes
Forced                                   : No

Menu
00:00:00.000                             : en:Chapter 1
00:15:44.109                             : en:Chapter 2
00:29:44.657                             : en:Chapter 3
00:44:19.573                             : en:Chapter 4
00:58:33.051                             : en:Chapter 5
01:15:35.405                             : en:Chapter 6
01:29:22.565                             : en:Chapter 7
ImageImage

The.Humanity.Bureau.2017.720p.WEB-DL.x264.AC3-EVO.mkv  [2.59 Gb]

Post Reply

Return to “Non-Retail HD (720p, 810p, 1080p)”