Shortwave.(2016).WEBRip.1080p.AC3.x264-FGT

Encodes in the resolutions 720p, 810p and 1080p, and in irregular HD resolutions, from non-retail (WEB or HDTV) sources, with one or more English audio tracks only. This section does not include animated or TV/documentary films, it does however include black & white movies.
Post Reply
bjorn j
Donator
Donator
Posts: 2920
Joined: Wed Jan 07, 2009 1:49 pm
Has thanked: 24 times
Been thanked: 5752 times

Shortwave.(2016).WEBRip.1080p.AC3.x264-FGT

Post by bjorn j » Tue Oct 24, 2017 1:30 pm

Image

http://www.IMDb.com/title/tt5152640/
Genres: Sci-Fi, Thriller

A modern and unrelentingly tense psychological thriller based on a theory of the origins of shortwave radio frequencies, Shortwave is an unnerving reminder that some stones are best left unturned.

Josh and Isabel Harris, after suffering the loss of their only child, relocate to a secluded hillside research facility with the hopes of repairing their broken family. After years of trying, Josh and his research partner, Thomas, have a breakthrough involving a cryptic shortwave radio signal and its universal origins. Something within the signal resonates with Isabel and she begins experiencing seeming hallucinations and visions of distant memories. Upon further investigation into the phenomenon, the scientists fear for Isabel's health while Isabel fears the signal has attracted something sinister to their new home.

Code: Select all

Video
ID                                       : 1
Format                                   : AVC
Format/Info                              : Advanced Video Codec
Format profile                           : High@L4
Format settings, CABAC                   : Yes
Format settings, ReFrames                : 5 frames
Codec ID                                 : V_MPEG4/ISO/AVC
Duration                                 : 1 h 28 min
Bit rate                                 : 4 500 kb/s
Width                                    : 1 920 pixels
Height                                   : 720 pixels
Display aspect ratio                     : 2.667
Frame rate mode                          : Constant
Frame rate                               : 23.976 (24000/1001) FPS
Color space                              : YUV
Chroma subsampling                       : 4:2:0
Bit depth                                : 8 bits
Scan type                                : Progressive
Bits/(Pixel*Frame)                       : 0.136
Stream size                              : 2.79 GiB (90%)
Title                                    : Shortwave.2016.1080p.WEB-DL.DD5.1.H264-FGT
Language                                 : English
Default                                  : Yes
Forced                                   : No
Color range                              : Limited
Color primaries                          : BT.709
Transfer characteristics                 : BT.709
Matrix coefficients                      : BT.709

Audio
ID                                       : 2
Format                                   : AC-3
Format/Info                              : Audio Coding 3
Format settings, Endianness              : Big
Codec ID                                 : A_AC3
Duration                                 : 1 h 28 min
Bit rate mode                            : Constant
Bit rate                                 : 384 kb/s
Channel(s)                               : 6 channels
Channel positions                        : Front: L C R, Side: L R, LFE
Sampling rate                            : 48.0 kHz
Frame rate                               : 31.250 FPS (1536 spf)
Bit depth                                : 16 bits
Compression mode                         : Lossy
Delay relative to video                  : -42 ms
Stream size                              : 244 MiB (8%)
Title                                    : Shortwave.2016.1080p.WEB-DL.DD5.1.H264-FGT
Language                                 : English
Service kind                             : Complete Main
Default                                  : Yes
Forced                                   : No

Text
ID                                       : 3
Format                                   : UTF-8
Codec ID                                 : S_TEXT/UTF8
Codec ID/Info                            : UTF-8 Plain Text
Language                                 : English
Default                                  : Yes
Forced                                   : No

Menu
00:00:00.000                             : en:1
00:06:32.934                             : en:2
00:11:01.243                             : en:3
00:15:56.288                             : en:4
00:23:35.080                             : en:5
00:28:10.939                             : en:6
00:33:38.016                             : en:7
00:37:54.856                             : en:8
00:44:20.533                             : en:9
00:50:56.053                             : en:10
00:56:01.733                             : en:11
01:01:26.849                             : en:12
01:06:16.263                             : en:13
01:12:14.496                             : en:14
01:15:14.384                             : en:15
01:20:53.681                             : en:16
Image

Shortwave.2016.1080p.WEB-DL.DD5.1.H264-FGT.mkv  [3.09 Gb]

Post Reply

Return to “Non-Retail HD (720p, 810p, 1080p)”