Overdrive.(2017).WEBRip.1080p.AC3.x264-FGT

Encodes in the resolutions 720p, 810p and 1080p, and in irregular HD resolutions, from non-retail (WEB or HDTV) sources, with one or more English audio tracks only. This section does not include animated or TV/documentary films, it does however include black & white movies.
Post Reply
bjorn j
Donator
Donator
Posts: 2921
Joined: Wed Jan 07, 2009 1:49 pm
Has thanked: 24 times
Been thanked: 5754 times

Overdrive.(2017).WEBRip.1080p.AC3.x264-FGT

Post by bjorn j » Fri Oct 06, 2017 4:10 pm

Image

http://www.IMDb.com/title/tt1935194/
Genres: Action, Thriller

Two car thief brothers, who journey to the south of France for new opportunities, wind up in the cross hairs of the local crime boss.

The story centers on two car thieves, brothers, who journey to the south of France for new opportunities and wind up in the cross hairs of the local crime boss. Andrew and Garrett Foster (Scott Eastwood and Freddie Thorp) are thieves who specialize in luxury cars, only the most expensive cars. They've been hired to steal a gorgeous Bugatti 1937 valued million euros, so they head to the south of France for the job. But they get caught, and Jacomo Morier (Simon Abkarian), the local crime boss who owns the Bugatti, doesn't take it lightly. In exchange for their lives the two brothers will have to steal a car from Max Klemp (Clemens Schick), Morier's arch-rival, and not any car, Morier wants them to steal Klemp's 1962 Ferrari 250 GTO, his most prized car.

Code: Select all

Video
ID                                       : 1
Format                                   : AVC
Format/Info                              : Advanced Video Codec
Format profile                           : High@L4
Format settings, CABAC                   : Yes
Format settings, ReFrames                : 5 frames
Codec ID                                 : V_MPEG4/ISO/AVC
Duration                                 : 1 h 33 min
Bit rate                                 : 4 414 kb/s
Width                                    : 1 920 pixels
Height                                   : 802 pixels
Display aspect ratio                     : 2.40:1
Frame rate mode                          : Constant
Frame rate                               : 23.976 (24000/1001) FPS
Color space                              : YUV
Chroma subsampling                       : 4:2:0
Bit depth                                : 8 bits
Scan type                                : Progressive
Bits/(Pixel*Frame)                       : 0.120
Stream size                              : 2.88 GiB (90%)
Title                                    : Overdrive.2017.1080p.WEB-DL.DD5.1.H264-FGT
Language                                 : English
Default                                  : Yes
Forced                                   : No
Color range                              : Limited
Color primaries                          : BT.709
Transfer characteristics                 : BT.709
Matrix coefficients                      : BT.709

Audio
ID                                       : 2
Format                                   : AC-3
Format/Info                              : Audio Coding 3
Format settings, Endianness              : Big
Codec ID                                 : A_AC3
Duration                                 : 1 h 33 min
Bit rate mode                            : Constant
Bit rate                                 : 384 kb/s
Channel(s)                               : 6 channels
Channel positions                        : Front: L C R, Side: L R, LFE
Sampling rate                            : 48.0 kHz
Frame rate                               : 31.250 FPS (1536 spf)
Bit depth                                : 16 bits
Compression mode                         : Lossy
Delay relative to video                  : -42 ms
Stream size                              : 257 MiB (8%)
Title                                    : Overdrive.2017.1080p.WEB-DL.DD5.1.H264-FGT
Language                                 : English
Service kind                             : Complete Main
Default                                  : Yes
Forced                                   : No

Text #1
ID                                       : 3
Format                                   : UTF-8
Codec ID                                 : S_TEXT/UTF8
Codec ID/Info                            : UTF-8 Plain Text
Title                                    : FORCED
Language                                 : English
Default                                  : Yes
Forced                                   : Yes

Text #2
ID                                       : 4
Format                                   : UTF-8
Codec ID                                 : S_TEXT/UTF8
Codec ID/Info                            : UTF-8 Plain Text
Language                                 : English
Default                                  : No
Forced                                   : No

Menu
00:00:00.000                             : en:1
00:06:34.000                             : en:2
00:10:12.000                             : en:3
00:19:20.000                             : en:4
00:25:36.000                             : en:5
00:31:24.000                             : en:6
00:38:23.000                             : en:7
00:44:54.000                             : en:8
00:48:29.000                             : en:9
00:54:28.000                             : en:10
01:01:34.000                             : en:11
01:10:04.000                             : en:12
01:17:27.000                             : en:13
01:25:26.000                             : en:14
01:27:33.000                             : en:15
Image

Overdrive.2017.1080p.WEB-DL.DD5.1.H264-FGT.mkv  [3.20 Gb]

Post Reply

Return to “Non-Retail HD (720p, 810p, 1080p)”